<?xml version="1.0" standalone="no"?>
<!DOCTYPE svg PUBLIC "-//W3C//DTD SVG 1.1//EN" "http://www.w3.org/Graphics/SVG/1.1/DTD/svg11.dtd">
<svg xmlns="http://www.w3.org/2000/svg">
<metadata>Copyright (C) 2014 by original authors @ fontello.com</metadata>
<defs>
<font id="fontello" horiz-adv-x="1000" >
<font-face font-family="fontello" font-weight="400" font-stretch="normal" units-per-em="1000" ascent="850" descent="-150" />
<missing-glyph horiz-adv-x="1000" />
<glyph glyph-name="aboveground-rail" unicode="&#xe800;" d="m150 775l-150-100 0-500c0-25 25-50 50-50l550 0c25 0 50 25 50 50l0 500-150 100z m50-100l250 0 100-50 0-100-450 0 0 100z m-50-350c28 0 50-22 50-50 0-28-22-50-50-50-28 0-50 22-50 50s22 50 50 50z m350 0c28 0 50-22 50-50 0-28-22-50-50-50-28 0-50 22-50 50s22 50 50 50z m-175-250l-275-150 550 0z" horiz-adv-x="650" />
<glyph glyph-name="baseball" unicode="&#xe801;" d="m100 775c-63 0-100-38-100-100 0-50 100-125 150-175 100-100 265-190 425-350l150-150-25-25c0-25 25-50 50-50l50 50 50 50c0 25-25 50-50 50l-25-25-150 150c-143 143-250 325-350 425-50 50-125 150-175 150z m175-500c-41 0-75-34-75-75 0-41 34-75 75-75s75 34 75 75c0 41-34 75-75 75z" horiz-adv-x="850" />
<glyph glyph-name="basketball" unicode="&#xe802;" d="m225 775l-225-200 0-400c0-25 25-50 50-50l178 0 97-175c14-25 25-25 50-25l100 0c25 0 36 0 50 25l97 175 178 0c25 0 50 25 50 50l0 400-225 200-400 0z m-25-200l450 0 0-300-450 0 0 300z m50-50l0-200 350 0 0 200-350 0z m28-400l72 0 0-50 50 0 0 50 50 0 0-50 50 0 0 50 72 0-28-50-44 0 0-50 17 0-17-31 0 31-50 0 0-50-50 0 0 50-50 0 0-31-17 31 17 0 0 50-44 0-28 50z m122-100l50 0 0 50-50 0 0-50z" horiz-adv-x="850" />
<glyph glyph-name="beer" unicode="&#xe803;" d="m0 775l100-800c3-25 25-50 50-50l450 0c25 0 47 25 50 50l100 800z m113-100l525 0-24-200-478 0z" horiz-adv-x="750" />
<glyph glyph-name="belowground-rail" unicode="&#xe804;" d="m50 775l275-150 275 150z m100-200l-150-100 0-500c0-25 25-50 50-50l550 0c25 0 50 25 50 50l0 500-150 100z m50-100l250 0 100-50 0-100-450 0 0 100z m-50-350c28 0 50-22 50-50 0-28-22-50-50-50-28 0-50 22-50 50s22 50 50 50z m350 0c28 0 50-22 50-50 0-28-22-50-50-50-28 0-50 22-50 50s22 50 50 50z" horiz-adv-x="650" />
<glyph glyph-name="bicycle" unicode="&#xe805;" d="m625 700l-25-50 100-37 0-113-350 0 0 50 50 0 0 25c0 12-13 25-25 25l-125 0c-25 0-25-25-25-25l0-25 75 0 0-50-53-106c-15 3-31 6-47 6-110 0-200-89-200-200s90-200 200-200 200 90 200 200c0 0 50 0 75 0s25 25 25 25c5 74 43 131 92 169 34 26 71 42 108 50l0-52c-86-22-150-99-150-192 0-110 90-200 200-200s200 90 200 200c0 91-62 167-145 191l-55 109 0 125c0 15-12 31-25 36z m-275-250l225 0c-50-25-125-150-125-200l-58 0c-12 49-41 90-83 117z m-150-125c69 0 125-56 125-125s-56-125-125-125-125 56-125 125 56 125 125 125z m550 0c69 0 125-56 125-125s-56-125-125-125-125 56-125 125 56 125 125 125z" horiz-adv-x="950" />
<glyph glyph-name="bus" unicode="&#xe806;" d="m150 775l0-50-100 0c-25 0-50-25-50-50l0-650 50 0 0-100 100 0 0 100 350 0 0-100 100 0 0 100 50 0 0 650c0 25-25 50-50 50l-100 0 0 50z m-50-150l450 0 0-250-450 0 0 100z m50-400c28 0 50-22 50-50 0-28-22-50-50-50-28 0-50 22-50 50 0 28 22 50 50 50z m350 0c28 0 50-22 50-50 0-28-22-50-50-50-28 0-50 22-50 50 0 28 22 50 50 50z" horiz-adv-x="650" />
<glyph glyph-name="cafe" unicode="&#xe807;" d="m150 700c-28 0-50-22-50-50l0-450c0-28 22-50 50-50l550 0c28 0 50 22 50 50l0 50 25 0c25 0 25 25 25 25l0 25 50 0c50 0 100 50 100 100l0 150c0 25-25 50-50 50l-150 0 0 50c0 28-22 50-50 50z m600-150l125 0c25 0 25-25 25-25l0-125c0-25-25-50-50-50l-100 0z m-750-450l75-75c12-12 25-25 50-25 208 0 600 0 600 0 25 0 38 13 50 25l75 75z" horiz-adv-x="950" />
<glyph glyph-name="campsite" unicode="&#xe808;" d="m475 700c-25 0-36-12-44-25l-311-575-67 0c-29 0-53-22-53-50s24-50 53-50l844 0c29 0 53 22 53 50 0 28-24 50-53 50l-67 0-311 575c-8 13-19 25-44 25z m0-250l175-350-350 0z" horiz-adv-x="950" />
<glyph glyph-name="cemetery" unicode="&#xe809;" d="m275 745c-154 0-225-100-225-250l0-450c-25 0-50-25-50-50l0-50 550 0 0 50c0 25-25 50-50 50l0 450c0 150-75 250-225 250z" horiz-adv-x="550" />
<glyph glyph-name="cinema" unicode="&#xe80a;" d="m700 775l-112-33 54-148 108 31z m-181-52l-147-42 3-6 28-77 25-65 147 42z m-214-60l-130-38 56-148 130 37-33 84z m-197-57l-108-31 50-150 113 33z m-58-181l0-450c0-28 22-50 50-50l650 0c28 0 50 22 50 50l0 450z m100-100l550 0 0-150-550 0z" horiz-adv-x="800" />
<glyph glyph-name="garden" unicode="&#xe80b;" d="m165 750c-13 0-15-28-15-50l0-100c0-102 100-153 200-150l0-400c-50 100-200 250-350 200 0 0 125-300 375-300s375 300 375 300c-150 50-300-100-350-200l0 400c100-3 200 48 200 150l0 100c0 22-2 50-15 50-10 0-21-11-35-25l-75-75-75 84c-8 9-12 16-25 16-13 0-17-7-25-16l-75-84-75 75c-14 14-25 25-35 25z" horiz-adv-x="750" />
<glyph glyph-name="giraffe" unicode="&#xe80c;" d="m600 825c-100-150-189-250-300-350-106-95-300-63-300-200l0-50c0-50 50-98 50-150l0-50c0-75-25-75-50-150l50 0 100 150 0-150 50 0 0 250s0 50 50 50 50-50 50-50l0-250 50 0 0 225 50-75 50-150 50 0-77 314c30 18 27 51 27 86 0 47 0 100 0 150l200 275 72-22c15-5 28-3 28 10 0 25-16 30-25 37z" horiz-adv-x="750" />
<glyph glyph-name="golf" unicode="&#xe80d;" d="m175 800c-17 0-25 0-25-25l0-722c-100-3-150-78-150-128 0-25 25-25 25-25l600 0s25 0 25 25c0 125-75 225-150 225-79 0-122-139-200-150-34-5-67 17-100 34l0 466 350 150-325 139c-19 8-37 11-50 11z" horiz-adv-x="650" />
<glyph glyph-name="grocery-store" unicode="&#xe80e;" d="m800 750c-29 0-55-8-73-27-19-18-27-44-27-73l-700 0 100-450 600 0 0-50-550 0c-50 0-50-50 0-50l550 0c25 0 50 25 50 50l0 500s4 33 11 39c7 7 18 11 39 11 6 0 15 0 20 0 25 0 30 12 30 25 0 12-5 25-30 25-6 0-13 0-20 0z m-175-650c-41 0-75-34-75-75s34-75 75-75 75 34 75 75-34 75-75 75z m-400 0c-41 0-75-34-75-75s34-75 75-75 75 34 75 75-34 75-75 75z" horiz-adv-x="850" />
<glyph glyph-name="harbor" unicode="&#xe80f;" d="m675 775c-97 0-175-78-175-175 0-22 5-43 13-62l-413-413c0 50 0 150 0 200 0 75 50 100 50 100l50-50s0 133 0 200c0 50-25 25-50 0-150-150-150-149-150-250l0-350c0-25 25-50 50-50l350 0c101 0 183 83 250 150 25 25 50 49 0 50l-200 0 50-50s-25-50-100-50c-50 0-150 0-200 0l413 413c19-8 40-13 62-13 97 0 175 78 175 175 0 97-78 175-175 175z m0-100c41 0 75-34 75-75 0-41-34-75-75-75-41 0-75 34-75 75 0 41 34 75 75 75z" horiz-adv-x="850" />
<glyph glyph-name="heliport" unicode="&#xe810;" d="m250 650c-28 0-50-22-50-50s22-50 50-50l300 0 0-100-364 0c-17 30-49 50-86 50-55 0-100-45-100-100 0-55 45-100 100-100 29 0 54 13 72 33l178-183c50-51 88-100 113-100l437 0c25 0 50 25 50 50l0 150c0 50-24 74-50 100 0 0-33 33-50 50-17 17-50 50-100 50l-150 0 0 100 300 0c28 0 50 22 50 50 0 28-22 50-50 50l-650 0z m-150-200c28 0 50-22 50-50s-22-50-50-50-50 22-50 50c0 28 22 50 50 50z" horiz-adv-x="950" />
<glyph glyph-name="hospital" unicode="&#xe811;" d="m300 725c-28 0-50-22-50-50l0-200-200 0c-28 0-50-22-50-50l0-150c0-28 22-50 50-50l200 0 0-200c0-28 22-50 50-50l150 0c28 0 50 22 50 50l0 200 200 0c28 0 50 22 50 50l0 150c0 28-22 50-50 50l-200 0 0 200c0 28-22 50-50 50z" horiz-adv-x="750" />
<glyph glyph-name="industrial-building" unicode="&#xe812;" d="m600 675c0-67 0-200 0-200l-150 0 0 150-200-150 0 150-200-150c-22-17-50-25-50-75l0-375c0-28 22-50 50-50l750 0c28 0 50 22 50 50l0 400c0 28-22 50-50 50l-100 0s0 133 0 200c0 25-26 50-50 50-24 0-50-25-50-50z" horiz-adv-x="850" />
<glyph glyph-name="library" unicode="&#xe813;" d="m0 700l0-500c150-150 350-100 350-200l50 0 0 450c0 150-250 150-400 250z m850 0c-150-100-400-100-400-250l0-450 50 0c0 100 200 50 350 200z" horiz-adv-x="850" />
<glyph glyph-name="lodging" unicode="&#xe814;" d="m100 675c-55 0-100-45-100-100 0-55 45-100 100-100s100 45 100 100c0 55-45 100-100 100z m150-100c0-83-67-150-150-150l-75 0c-13 0-25 0-25-25 0-7 0-31 0-50 0-25 19-25 25-25l825 0 0 100c0 50 0 150-250 150l-350 0z m-200-300c-25 0-50-25-50-50 0-49 0-107 0-150 0-25 25-50 50-50s50 25 50 50l0 100 650 0 0-100c0-25 25-50 50-50s50 25 50 50l0 150c0 25-25 50-50 50l-750 0z" horiz-adv-x="850" />
<glyph glyph-name="religious-christian" unicode="&#xe815;" d="m325 800c-42 0-75-33-75-75l0-175-175 0c-42 0-75-33-75-75 0-41 33-75 75-75l175 0 0-425c0-42 33-75 75-75 42 0 75 33 75 75l0 425 175 0c42 0 75 34 75 75 0 42-33 75-75 75l-175 0 0 175c0 42-33 75-75 75z" horiz-adv-x="650" />
<glyph glyph-name="religious-islam" unicode="&#xe816;" d="m425 775c-235 0-425-190-425-425 0-235 190-425 425-425 131 0 249 60 327 153-51-33-112-53-177-53-179 0-325 146-325 325s146 325 325 325c65 0 126-20 177-53-78 93-196 153-327 153z m250-200l-50-150-175 0 150-100-75-175 150 100 150-100-75 175 150 100-175 0-50 150z" horiz-adv-x="900" />
<glyph glyph-name="religious-jewish" unicode="&#xe817;" d="m400 800l-150-200-250 0 150-250-150-250 250 0 150-200 150 200 250 0-150 250 150 250-250 0z" horiz-adv-x="800" />
<glyph glyph-name="restaurant" unicode="&#xe818;" d="m50 800c-25 0-50-25-50-50l0-250c0-50 50-50 50-100l0-450c0-25 25-50 50-50l50 0c25 0 50 25 50 50l0 450c0 50 50 50 50 100l0 250c0 25-25 50-50 50-12 0-12-15-12-25l0-200c0-10 0-25-13-25s-12 15-12 25l0 200c0 10 0 25-13 25l-50 0c-12 0-12-15-12-25l0-200c0-10 0-25-13-25s-12 15-12 25l0 200c0 10 0 25-13 25z m500 0c-50 0-143-12-175-75-25-50-25-175-25-225l0-200c0-25 25-50 50-50l0-300c0-25 25-50 50-50l50 0c25 0 50 25 50 50z" horiz-adv-x="550" />
<glyph glyph-name="roadblock" unicode="&#xe819;" d="m425 775c-235 0-425-190-425-425s190-425 425-425c235 0 425 190 425 425s-190 425-425 425z m-275-350l550 0 0-150-550 0 0 150z" horiz-adv-x="850" />
<glyph glyph-name="school" unicode="&#xe81a;" d="m638 800c-49 0-88-39-88-87s39-88 88-88 87 39 87 88-39 87-87 87z m-400-100c-49 0-88-39-88-87s39-88 88-88 87 39 87 88-39 87-87 87z m462-100c-19 0-49-7-75-25l-162-116c-45-31-4-86 37-59l106 70s70-150 44-220c-1-2-2-4-2-6l-109-291c-12-33 12-53 36-53 16 0 31 10 39 28l136 322s25-150 125-150c60 0 104 0 138 0 37 0 37 38 37 38s0 37-37 37c-25 0-88 0-113 0-53 0-50 80-50 125 0 75-50 200-50 200l150-100c45-30 85 23 41 56l-166 119c-30 22-40 25-75 25 0 0-25 0-50 0z m-525-100c-25 0-37-12-50-25l-106-106c-14-14-19-26-19-44 0-25 38-37 59-16l91 91c50 0 69-125 50-175l-75-200c-21-55 57-72 75-25l75 200s25-50 75-50l150 0c50 0 50 75 0 75l-125 0c-25 0-25 50-25 75 0 100-50 200-100 200z" horiz-adv-x="1050" />
<glyph glyph-name="shop" unicode="&#xe81b;" d="m300 775c-50 0-94-50-100-100l-17-150-83 0c-25 0-50-25-50-50l-50-500c0-25 25-50 50-50l650 0c25 0 50 25 50 50l-50 500c0 25-25 50-50 50l-83 0-17 150c-6 50-50 100-100 100z m0-50l150 0c25 0 47-25 50-50l17-150-284 0 17 150c3 25 25 50 50 50z" horiz-adv-x="750" />
<glyph glyph-name="skiing" unicode="&#xe81c;" d="m450 750c-50 0-100-25-100-100 0-27 2-31 8-55l34-142-186-114-168 98c-6 4-13 4-22 2-9-2-16-12-16-23 0-11 5-18 13-22l725-425c22-13 43-19 62-19 13 0 27 2 38 6 26 11 43 31 54 42 6 6 8 13 8 21 0 10-6 22-20 23-9 1-16-2-22-9-12-15-27-26-39-31-13-6-27-7-56 10l-465 272 180 105c17 11 25 34 20 53l-20 83 179-105 34-129c4-14 14-27 28-33l114-50c80-35 92 42 40 64l-93 41-80 312-153 88c-39 22-72 37-97 37z m400-100c-55 0-100-45-100-100s45-100 100-100c55 0 100 45 100 100s-45 100-100 100z" horiz-adv-x="950" />
<glyph glyph-name="soccer" unicode="&#xe81d;" d="m425 775c-234 0-425-191-425-425 0-234 191-425 425-425 234 0 425 191 425 425 0 234-191 425-425 425z m0-75c133 0 249-74 308-183-56-37-107-56-108-92 0-25 0-32 0-50 0-25 13-57 50-75l88-42c-10-37-27-71-47-102l-66 44c-37 25-75 42-100 25l-75-50c-35-23-31-50-25-75l23-97c-15-2-31-3-48-3-35 0-68 5-100 14l0 86c0 50-25 75-50 100-25 25-50 50-100 50l-86 0c-9 32-14 65-14 100 0 194 156 350 350 350z m-150-175l-25-100c-7-28-26-58 0-75l75-50c50-33 72-14 100 0l50 25c37 19 50 25 50 75l0 100c0 25 0 40-50 50l-125 25c-52 11-62 1-75-50z" horiz-adv-x="850" />
<glyph glyph-name="airfield" unicode="&#xe81e;" d="m175 725c-14 0-25-11-25-25 0-14 11-25 25-25l200 0-25-150 0-50-350-100 0-100 350 0 0-200-125-50 0-50 400 0 0 50-125 50 0 200 350 0 0 100-350 100 0 50-25 150 200 0c14 0 25 11 25 25 0 14-11 25-25 25z" horiz-adv-x="850" />
<glyph glyph-name="airport" unicode="&#xe81f;" d="m850 275l0-50-350 50 0-200 100-100c0-25-25-50-50-50-100 0-250 0-250 0-25 0-50 25-50 50l100 100 0 200-350-50 0 50 350 200s0 17 0 100c0 50 25 200 75 200s75-150 75-200c0-83 0-100 0-100z" horiz-adv-x="850" />
<glyph glyph-name="art-gallery" unicode="&#xe820;" d="m400 725c-250 0-400-200-400-300s50-175 150-175 150-25 150-100c0-100 75-175 175-175 325 0 475 175 475 350 0 300-250 400-550 400z m-62-100c34 0 62-28 62-62 0-35-28-63-62-63-35 0-63 28-63 63 0 34 28 62 63 62z m200 0c34 0 62-28 62-62 0-35-28-63-62-63-35 0-63 28-63 63 0 34 28 62 63 62z m200-100c34 0 62-28 62-62 0-35-28-63-62-63-35 0-63 28-63 63 0 34 28 62 63 62z m-575-50c34 0 62-28 62-62 0-35-28-63-62-63-35 0-63 28-63 63 0 34 28 62 63 62z m312-250c41 0 75-34 75-75s-34-75-75-75-75 34-75 75 34 75 75 75z" horiz-adv-x="950" />
<glyph glyph-name="bar" unicode="&#xe821;" d="m50 775c-25 0-50 0-50-12 0-13 17-28 25-38l325-391 0-309-150-50c-25-8-50-25-50-50l550 0c0 25-25 42-50 50l-150 50 0 309 325 391c8 10 25 25 25 38 0 12-25 12-50 12z" horiz-adv-x="850" />
<glyph glyph-name="fast-food" unicode="&#xe822;" d="m350 675c-150 0-300-75-300-200l0-100 850 0 0 100c0 125-150 200-300 200z m25-50c14 0 25-11 25-25 0-14-11-25-25-25-14 0-25 11-25 25 0 14 11 25 25 25z m200 0c14 0 25-11 25-25 0-14-11-25-25-25-14 0-25 11-25 25 0 14 11 25 25 25z m-300-100c14 0 25-11 25-25 0-14-11-25-25-25-14 0-25 11-25 25 0 14 11 25 25 25z m200 0c14 0 25-11 25-25 0-14-11-25-25-25-14 0-25 11-25 25 0 14 11 25 25 25z m200 0c14 0 25-11 25-25 0-14-11-25-25-25-14 0-25 11-25 25 0 14 11 25 25 25z m-625-200c-25 0-50-25-50-50 0-25 25-50 50-50l850 0c25 0 50 25 50 50 0 25-25 50-50 50z m0-150l0-50c0-50 50-100 100-100l650 0c50 0 100 50 100 100l0 50z" horiz-adv-x="950" />
<glyph glyph-name="ferry" unicode="&#xe823;" d="m300 850c-28 0-50-22-50-50l-100 0c-28 0-50-22-50-50l0-303-100-47 100-200 0-100 159-47c6-2 11-3 16-3 5 0 11 2 16 3l134 47 134-47c6-2 11-3 16-3 5 0 11 2 16 3l159 47 0 100 100 200-100 47 0 303c0 28-22 50-50 50l-100 0c0 28-22 50-50 50l-250 0z m-100-150l450 0 0-206-175 81-50 25-50-25-175-81 0 206z m-100-700c-5 0-12-2-16-3l-84-28 0-102 100 33 159-47c6-2 11-3 16-3 5 0 11 2 16 3l134 47 134-47c6-2 11-3 16-3 5 0 11 1 16 3l159 47 100-33 0 102-84 28c-5 1-11 3-16 3s-10-2-16-3l-159-47-134 47c-6 2-11 3-16 3s-11-2-16-3l-134-47-159 47c-7 2-11 3-16 3z" horiz-adv-x="850" />
<glyph glyph-name="fire-station" unicode="&#xe824;" d="m425 775l-175-250-100 150c-33-58-150-200-150-350 0-221 204-400 425-400 221 0 425 179 425 400 0 150-117 292-150 350l-100-150z m0-400s175-134 175-250c0-50-75-100-175-100s-175 50-175 100c0 112 175 250 175 250z" horiz-adv-x="850" />
<glyph glyph-name="football" unicode="&#xe825;" d="m475 675c-325 0-475-325-475-325s150-325 475-325 475 325 475 325-150 325-475 325z m-150-250c14 0 25-11 25-25l0-25 100 0 0 25c0 14 11 25 25 25 14 0 25-11 25-25l0-25 100 0 0 25c0 14 11 25 25 25 14 0 25-11 25-25l0-25 75 0c14 0 25-11 25-25 0-14-11-25-25-25l-75 0 0-25c0-14-11-25-25-25-14 0-25 11-25 25l0 25-100 0 0-25c0-14-11-25-25-25-14 0-25 11-25 25l0 25-100 0 0-25c0-14-11-25-25-25-14 0-25 11-25 25l0 25-75 0c-14 0-25 11-25 25 0 14 11 25 25 25l75 0 0 25c0 14 11 25 25 25z" horiz-adv-x="950" />
<glyph glyph-name="fuel" unicode="&#xe826;" d="m50 800c-28 0-50-22-50-50l0-800c0-25 25-50 50-50l450 0c25 0 50 25 50 50l0 250 25 0c25 0 25-25 25-25l0-100c0-50 25-75 75-75s75 25 75 75c0 58 0 225 0 275 0 50-100 100-100 150l0 150-50 0-50 50 0 50c0 28-22 50-50 50z m50-100l350 0 0-200-350 0z m450-150l50 0s0-42 0-75c0-50 100-100 100-150l0-250c0-25-25-25-25-25s-25 0-25 25c0 0 0 100 0 125 0 25-25 50-50 50-17 0-50 0-50 0z" horiz-adv-x="750" />
<glyph glyph-name="pitch" unicode="&#xe827;" d="m300 825c-55 0-100-45-100-100s45-100 100-100c55 0 100 45 100 100s-45 100-100 100z m-287-200l25-100c12-50 42-50 79-50l83 0c30-50 16-124 25-200l-45 0c-50 0-130-50-80-150l75-150c50-100 125-25 100 25l-75 150c-12 25 13 25 25 25l123 0s60-131 129-221c26-34 55-79 90-79 25 0 68 39 23 93-86 102-140 207-140 257 0 58-10 181-25 250l75 0c24-49 63-125 63-125 27-48 87-44 87 0 0 6 0 19-7 34l-80 166c-6 11-13 25-50 25l-388 0-37 125c-15 50-88 50-88 0 0-25 9-55 13-75z" horiz-adv-x="650" />
<glyph glyph-name="police" unicode="&#xe828;" d="m200 800c-25 0-50-25-50-50l0-50 350 0 0 50c0 25-25 50-50 50l-250 0z m-50-150l0-25c0-97 78-175 175-175s175 78 175 175l0 25-350 0z m-50-250c-75 0-100-125-100-200l0-300 134 0 341 500-375 0z m450 0l-341-500 441 0 0 300c0 75-25 200-100 200z" horiz-adv-x="650" />
<glyph glyph-name="post" unicode="&#xe829;" d="m50 625c-50 0-25-17 0-37l350-288 400 288c25 20 50 37 0 37l-400 0z m-50-75l0-425c0-25 25-50 45-50l760 0c20 0 45 25 45 50l0 425-450-325z" horiz-adv-x="850" />
<glyph glyph-name="prison" unicode="&#xe82a;" d="m50 700c-28 0-50-22-50-50l0-600c0-28 22-50 50-50 28 0 50 22 50 50l0 100 150 0 0-100c0-28 22-50 50-50 28 0 50 22 50 50l0 100 150 0 0-100c0-28 22-50 50-50 28 0 50 22 50 50l0 100 150 0 0-100c0-28 22-50 50-50 28 0 50 22 50 50l0 600c0 28-22 50-50 50-28 0-50-22-50-50l0-100-150 0 0 100c0 28-22 50-50 50-28 0-50-22-50-50l0-100-150 0 0 100c0 28-22 50-50 50-28 0-50-22-50-50l0-100-150 0 0 100c0 28-22 50-50 50z m50-250l150 0 0-200-150 0 0 200z m250 0l150 0 0-200-150 0 0 200z m250 0l150 0 0-200-150 0 0 200z" horiz-adv-x="850" />
<glyph glyph-name="rail" unicode="&#xe82b;" d="m150 675l-150-100 0-500c0-25 25-50 50-50l550 0c25 0 50 25 50 50l0 500-150 100z m50-100l250 0 100-50 0-100-450 0 0 100z m-50-350c28 0 50-22 50-50s-22-50-50-50c-28 0-50 22-50 50 0 28 22 50 50 50z m350 0c28 0 50-22 50-50s-22-50-50-50c-28 0-50 22-50 50 0 28 22 50 50 50z" horiz-adv-x="650" />
<glyph glyph-name="tree-1" unicode="&#xe82c;" d="m325 800l-275-250 150 0-200-200 150 0-150-200 250 0 0-200c0-28 22-50 50-50l50 0c28 0 50 22 50 50l0 200 250 0-150 200 150 0-200 200 150 0-275 250z" horiz-adv-x="650" />
<glyph glyph-name="tree-2" unicode="&#xe82d;" d="m325 800c-61 0-111-45-122-103-9 2-18 3-28 3-69 0-125-56-125-125 0-32 12-61 31-83-47-18-81-63-81-117 0-69 50-125 125-125l25 0 100-175 0-125c0-25 25-50 50-50l50 0c25 0 50 25 50 50l0 125 100 175 36 1c64-1 114 59 114 124l0 0c0 54-34 99-81 117 20 22 31 51 31 83 0 69-56 125-125 125-10 0-19-1-28-3-11 58-60 103-122 103z m-75-550l150 0-50-100-50 0-50 100z" horiz-adv-x="650" />
<glyph glyph-name="warehouse" unicode="&#xe82e;" d="m475 700l-475-275 100 0 0-400c0-25 22-50 50-50l150 0 0 250c0 28 22 50 50 50l350 0c28 0 49-22 50-50l0-250 150 0c28 0 50 22 50 50l0 400 100 0-475 275c-21 12-42 25-50 25-8 0-28-12-50-25z m-125-475l0-50 350 0 0 50z m0-100l0-50 350 0 0 50z m0-100l0-50 350 0 0 50z" horiz-adv-x="1050" />
<glyph glyph-name="college" unicode="&#xe82f;" d="m475 700l-475-250 475-250 275 139s0-126 0-189c0-100 100-100 100-100l0 50s-50 3-50 50c0 75 0 217 0 217l150 83z m-225-450l0-100c0-25 16-58 50-75l175-75 150 75c34 17 77 50 75 75l0 100-225-109z" horiz-adv-x="950" />
<glyph glyph-name="commerical-building" unicode="&#xe830;" d="m50 800c-28 0-50-22-50-50 0 0 0-533 0-800 0-25 25-50 50-50 83 0 250 0 250 0l0 150c0 28 26 50 50 50l50 0c24 0 50-22 50-50 0-50 0-100 0-150 0 0 167 0 250 0 25 0 50 25 50 50 0 267 0 800 0 800 0 28-22 50-50 50z m100-150l150 0 0-100-150 0z m300 0l150 0 0-100-150 0z m-300-300l150 0 0-100-150 0z m300 0l150 0 0-100-150 0z" horiz-adv-x="750" />
<glyph glyph-name="credit-card" unicode="&#xe831;" d="m50 650c-28 0-50-22-50-50l0-500c0-28 22-50 50-50l850 0c28 0 50 22 50 50l0 500c0 28-22 50-50 50z m-25-100l900 0 0-100-900 0z m25-300l150 0 0-100-150 0z m450-50l350 0 0-50-350 0z" horiz-adv-x="950" />
<glyph glyph-name="cricket" unicode="&#xe832;" d="m50 725c-50-50-50-100-50-100l500-500 75 25 200-200c16-16 25-25 45-25 7 0 14 0 22 8 8 8 8 15 8 22 0 20-11 31-25 45l-200 200 25 75-500 500s-50 0-100-50z m175-450c-41 0-75-34-75-75 0-41 34-75 75-75s75 34 75 75c0 41-34 75-75 75z" horiz-adv-x="850" />
<glyph glyph-name="embassy" unicode="&#xe833;" d="m50 825c-28 0-50-22-50-50l0-850c0-25 25-50 50-50 25 0 50 25 50 50l0 513c17 7 34 12 50 12 100 0 248-125 350-125 44 0 106 17 150 50l0 350c-50-37-100-75-150-75-100 0-250 125-350 125-17 0-33-3-50-6l0 6c0 28-22 50-50 50z" horiz-adv-x="650" />
<glyph glyph-name="london-underground" unicode="&#xe834;" d="m475 725c-181 0-332-129-367-300l-58 0c-25 0-50-25-50-50l0-50c0-25 25-50 50-50l58 0c35-171 186-300 367-300 181 0 332 129 367 300l58 0c25 0 50 25 50 50l0 50c0 25-25 50-50 50l-58 0c-35 171-186 300-367 300z m0-125c103 0 193-83 225-175l-450 0c32 92 122 175 225 175z m-225-325l450 0c-32-92-122-175-225-175s-193 83-225 175z" horiz-adv-x="950" />
<glyph glyph-name="minefield" unicode="&#xe835;" d="m425 725l-125-350-300 200 100-325c23-74 50-75 100-75l100 0 0 50 250 0 0-50 100 0c50 0 75 22 100 75l100 325-300-200-125 350z m-75-550l0-50c-111 0-200-33-200-75s89-75 200-75l150 0c111 0 200 34 200 75s-89 75-200 75l0 50-150 0z" horiz-adv-x="850" />
<glyph glyph-name="monument" unicode="&#xe836;" d="m375 825s-129-100-125-150l0-550-100 0c-28 0-50-22-50-50l0-100-50 0c-28 0-50-22-50-50l0-50 750 0 0 50c0 28-22 50-50 50l-50 0 0 100c0 28-22 50-50 50l-100 0 0 550c0 50-125 150-125 150z" horiz-adv-x="750" />
<glyph glyph-name="museum" unicode="&#xe837;" d="m425 800l-325-250 650 0z m-275-300c-28 0-46-23-50-50l0-350-87-150c-8-13-13-18-13-25 0-25 32-25 50-25l750 0c18 0 50 0 50 25 0 7-4 11-12 25l-88 150 0 350c0 28-22 50-50 50z m100-100c25 0 50 0 75 0s50-50 50-50l50-125 50 125c11 28 25 50 50 50 25 0 50 0 75 0 28 0 50-22 50-50l0-250c0-25-25-50-50-50-25 0-50 25-50 50l0 200-75-150s-25-50-50-50c-25 0-50 50-50 50l-75 150 0-200c0-25-25-50-50-50-25 0-50 25-50 50l0 250c0 28 22 50 50 50z" horiz-adv-x="850" />
<glyph glyph-name="pharmacy" unicode="&#xe838;" d="m275 825c-152 0-275-56-275-125l0-150c0-69 123-125 275-125 152 0 275 56 275 125l0 150c0 69-123 125-275 125z m-275-375l0-450c0-69 123-125 275-125 152 0 275 56 275 125l0 450c0-69-123-125-275-125-152 0-275 56-275 125z m150-225c38-9 80-14 125-14 45 0 87 5 125 14l0-200c-38-9-80-14-125-14-45 0-87 5-125 14z" horiz-adv-x="550" />
<glyph glyph-name="tennis" unicode="&#xe839;" d="m300 775c-166 0-300-134-300-300s134-300 300-300l250 0 225-225c16-16 25-25 45-25 7 0 14 0 22 8 8 8 8 15 8 22 0 20-11 31-25 45l-225 225 0 250c0 166-134 300-300 300z m250-400l0-150-150 0z m-475-200c-41 0-75-34-75-75 0-41 34-75 75-75s75 34 75 75c0 41-34 75-75 75z" horiz-adv-x="850" />
<glyph glyph-name="theatre" unicode="&#xe83a;" d="m50 800c-24 0-50-25-50-50l0-350c0-111 50-250 250-250 18 0 34 1 50 3l0 147-200 0s25 100 150 100c25 0 35-4 50-9l0 109c0 46 18 84 50 100 50 25 70 15 100 0 50-25 50-25 50-25l0 175c0 25-26 50-50 50-50 0-100-50-200-50-100 0-150 50-200 50z m88-175c34 0 62-28 62-62 0-35-28-63-62-63-35 0-63 28-63 63 0 34 28 62 63 62z m262-75c-24 0-50-25-50-50l0-350c0-111 50-250 250-250 200 0 250 139 250 250l0 350c0 25-26 50-50 50-50 0-100-50-200-50-100 0-150 50-200 50z m88-175c34 0 62-28 62-62 0-35-28-63-62-63-35 0-63 28-63 63 0 34 28 62 63 62z m225 0c34 0 62-28 62-62 0-35-28-63-62-63-35 0-63 28-63 63 0 34 28 62 63 62z m-263-275l300 0s-25-100-150-100-150 100-150 100z" horiz-adv-x="850" />
<glyph glyph-name="toilet" unicode="&#xe83b;" d="m475 850c-14 0-25-11-25-25l0-950c0-14 11-25 25-25 14 0 25 11 25 25l0 950c0 14-11 25-25 25z m-275-50c-55 0-100-45-100-100s45-100 100-100c55 0 100 45 100 100s-45 100-100 100z m525 0c-55 0-100-45-100-100s45-100 100-100c55 0 100 45 100 100s-45 100-100 100z m-600-250l-124-375c-5-13 11-25 25-25l74 0 0-225c0-14 11-25 25-25 14 0 25 11 25 25l0 225 100 0 0-225c0-14 11-25 25-25 14 0 25 11 25 25l0 225 75 0c14 0 30 12 25 25l-125 375z m525 0c-28 0-50-22-50-50l0-575c0-14 11-25 25-25 14 0 25 11 25 25l0 275 150 0 0-275c0-14 11-25 25-25 14 0 25 11 25 25l0 575c0 28-22 50-50 50z" horiz-adv-x="850" />
<glyph glyph-name="town-hall" unicode="&#xe83c;" d="m475 800l-375-250 750 0z m-325-300c-28 0-50-22-50-50l0-350-87-150c-8-13-13-18-13-25 0-25 32-25 50-25l850 0c18 0 50 0 50 25 0 7-4 11-12 25l-88 150 0 350c0 28-22 50-50 50z m100-100c28 0 45-23 50-50l0-300-100 0 0 300c0 28 22 50 50 50z m225 0c28 0 50-22 50-50l0-300-100 0 0 300c0 28 22 50 50 50z m225 0c28 0 50-22 50-50l0-300-100 0 0 300c0 28 22 50 50 50z" horiz-adv-x="950" />
<glyph glyph-name="trash" unicode="&#xe83d;" d="m275 825c-14 0-25-11-25-25l0-75-200 0c-28 0-50-22-50-50 0-28 22-50 50-50l650 0c28 0 50 22 50 50 0 28-22 50-50 50l-200 0 0 75c0 14-11 25-25 25l-200 0z m25-50l150 0 0-50-150 0 0 50z m-250-200c-28 0-54-23-49-50l99-600c5-27 22-50 50-50l450 0c28 0 45 23 50 50l99 600c5 27-21 50-49 50l-650 0z" horiz-adv-x="750" />
<glyph glyph-name="swimming" unicode="&#xe83e;" d="m556 675c-8 0-21-5-28-8l-200-97c-26-12-36-51-19-75l61-82-223-174 103-33 134 44c5 2 11 3 16 3s10-1 16-3l134-44 70 24-192 278 152 76c30 15 28 41 25 57-3 14-21 34-49 34z m94-150c-55 0-100-45-100-100 0-55 45-100 100-100 55 0 100 45 100 100 0 55-45 100-100 100z m-550-350c-5 0-12-2-16-3l-84-28 0-103 100 34 134-47c6-2 11-3 16-3 5 0 11 2 16 3l134 47 134-47c6-2 11-3 16-3 5 0 11 2 16 3l134 47 150-50 0 103-134 44c-5 2-11 3-16 3s-10-1-16-3l-134-44-134 44c-6 2-11 3-16 3s-11-2-16-3l-134-44-134 44c-7 2-11 3-16 3z" horiz-adv-x="850" />
<glyph glyph-name="duckduckgo" unicode="&#xe83f;" d="m0 349q0 215 141 355t355 141 356-141 140-355q0-182-103-313t-280-172q-9 17-33 52t-35 56q64-26 86-26 16 0 16 50 0 94-17 94-25 0-97-55 0 14-15 12l-5 0q-26 69-26 123 0 15 3 30 92-45 148-45 31 0 94 18t62 39q0 13-17 13-26 0-75-7t-75-7q-27 0-59 14t-33 38q0 5 2 7t4 3 6 0 8-1 9 0q9 0 26-3t25-2q31 0 127 36t96 57q0 12-18 17t-35 5q-14 0-42-8t-61-18-44-13q4 20 4 32 0 47-25 109t-58 93q-27 24-72 33-28 36-87 65t-106 30q-9 0-27-4t-24-4l-22-31 6-1q7 0 22 2t21 2q34 0 78-14-28-14-49-19-2-1-13-3t-18-3-14-6-7-11q56 6 84 6 38 0 60-7-77-9-118-53t-42-121q0-27 4-50 19-120 73-358 33-155 37-171l1-4q-160 50-251 186t-91 308z m283 124q0-6 3-12-1 16 18 28t36 12q8 0 20-5-10 13-29 13-17 0-32-10t-16-26z m33-75q0 13 11 23t23 11 24-11 10-23-10-24-24-10-23 10-11 24z m40 11q0-8 9-8t9 8q0 9-9 9t-9-9z m168 87q8 13 37 13 13 0 33-10-10 22-35 22-31 0-35-25z m23-78q0 12 9 20t20 9q12 0 21-9t8-20q0-11-8-20t-21-9q-11 0-20 9t-9 20z m35 10q0-8 7-8 8 0 8 8 0 7-8 7-7 0-7-7z" horiz-adv-x="992" />
<glyph glyph-name="aim" unicode="&#xe840;" d="m0 432q0 105 53 188t136 132 181 73 194 25q29 0 43-1 115-6 226-41 87-28 166-74t147-109 108-147 40-176q0-13-1-19-11-152-120-256t-269-147q-107-30-229-30l-8 0q-201 0-315 53-6 2-7 6 0 2 3 2 1 0 4-1t3 0q50-12 89-12 24 0 47 4t44 20 20 40q0 12-6 24-9 16-58 34t-114 33-76 20q-80 26-139 66 0 1 4 10t6 14 7 12 8 6l179 0q9 0 17-21t21-44 35-22q18 0 31 12t13 29q0 11-84 199t-106 231q-6 15-16 15-8 0-13-9l-3-6q-8-15-52-114l-107-238-7-15q-95 109-95 234z m218-166q0 10 54 129l5 3q6 0 33-63t26-70q0-4-5-4l-108 0q-5 0-5 5z m307-123q0-45 47-45t47 45l0 388q0 45-47 45t-47-45l0-388z m185 0q0-45 47-45t47 45l0 181 92-185q13-29 41-29 32 0 46 29l91 185 0-181q0-45 47-45 48 0 48 45l0 388q0 45-47 45-35 0-47-29l-138-302-133 302q-14 29-48 29-46 0-46-45l0-388z" horiz-adv-x="1294" />
<glyph glyph-name="delicious" unicode="&#xe841;" d="m0-150l0 501 501 0 0-501-501 0z m509 499l0 501 500 0 0-501-500 0z" horiz-adv-x="1009" />
<glyph glyph-name="paypal" unicode="&#xe842;" d="m0-41l194 891 438 0q50 0 97-18t84-55 53-95-1-135q-29-136-128-214t-234-78l-183 0-63-296-257 0z m100-109l257 0 63 295 184 0q134 0 233 78t129 214q28 135-43 219 33-74 12-170-29-136-128-214t-234-78l-183 0-63-295-216 0z m257 575l83 0 42 183 125 0q2 0 17-3-8 29-31 47t-56 17l-125 0z m125 1q48 2 90 37t52 84q0 2 1 6t1 6l-114 0z" horiz-adv-x="974" />
<glyph glyph-name="flattr" unicode="&#xe843;" d="m0-37l0 514q0 179 85 278t259 99l548 0q-5-5-52-53t-100-101-109-109-95-93-42-37q-15 0-15 16l0 156-48 0q-59 0-94-6t-63-26-39-57-12-96l0-262z m67-117q5 5 53 53t100 101 109 110 95 93 41 36q15 0 15-16l0-156 48 0q116 0 162 36t45 149l0 262 224 223 0-514q0-179-84-278t-260-99l-548 0z" horiz-adv-x="959" />
<glyph glyph-name="android" unicode="&#xe844;" d="m0 201l0 269q0 26 19 45t44 18q26 0 45-18t18-45l0-269q0-26-18-44t-45-19-44 19-19 44z m173-100l0 418 574 0 0-418q0-26-18-44t-45-19l-448 0q-26 0-44 19t-19 44z m0 465l574 0q0 115-85 189t-202 74-202-74-85-189z m101 316q0 8 7 8 3 0 7-2l49-89-15-8q-48 88-48 91z m15-807q0 27 19 45t47 18q25 0 44-19t19-44l0-202q0-28-19-46t-47-17q-26 0-44 18t-19 45l0 202z m5 620q0 16 12 28t28 11 28-11 11-28q0-17-11-28t-29-12q-16 0-27 12t-12 28z m208-620q0 27 20 45t46 18q26 0 45-18t18-45l0-202q0-28-19-46t-47-17q-26 0-44 18t-19 45l0 202z m45 620q0 16 12 28t28 11 28-11 11-28q0-17-12-28t-28-12-27 12-12 28z m36 104q2 3 14 29t24 44 18 18 7-9l0-2-48-89z m211-598l0 268q0 26 19 45t44 19 45-19 18-45l0-268q0-26-18-44t-45-19-45 19-18 44z" horiz-adv-x="920" />
<glyph glyph-name="eventful" unicode="&#xe845;" d="m0 351q0 107 29 202 28 92 83 159 56 67 135 102 81 36 178 36 128 0 217-61 90-59 136-157 46-95 46-196 0-93-47-120t-132-27l-423 0q0-85 30-148 29-65 76-96 50-33 106-33 41 0 71 10 31 10 62 33 31 22 56 47t66 69q15 16 47 16 34 0 54-21 21-21 21-58 0-32-23-78-21-43-70-85-46-41-116-68-71-27-161-27-209 0-325 135-116 136-116 366z m222 78l392 0q-7 125-60 188-51 62-136 62-82 0-133-63-52-63-63-187z" horiz-adv-x="824" />
<glyph glyph-name="smashmag" unicode="&#xe846;" d="m0 612q0 25 16 46t41 26l197 47q-63-72-63-168 0-185 253-283 28-11 54-24t55-34 46-46 17-56q0-43-35-67t-80-24q-58 0-121 23t-105 60l-79-179q56-31 144-61-10-2-31-9t-39-10-32-3q-25 0-45 16t-27 41l-164 687q-2 12-2 18z m419-46q0 38 35 59t76 20q49 0 110-17t88-47l61 170q-90 48-186 63 2 0 45 12t72 18 42 6q25 0 46-16t26-41l164-687q2-12 2-18 0-25-16-45t-41-27l-145-34q47 70 47 152 0 111-70 183t-185 109q-171 58-171 140z" horiz-adv-x="1000" />
<glyph glyph-name="gplus" unicode="&#xe847;" d="m0 32q0 87 89 155t215 68l54 0q-42 40-42 86 0 29 16 58-10-1-29-1-104 0-170 65t-66 160q0 91 82 159t187 68l310 0-69-50-98 0q47-18 74-68t26-111q0-93-88-162-37-29-48-46t-11-42q0-19 27-48t54-49q61-43 85-88t23-113q0-90-82-157t-222-66q-133 0-225 50t-92 132z m112 33q0-69 59-118t145-48q119 0 173 44t53 117q0 19-4 32-3 11-7 21t-12 19-14 16-19 16-21 15-25 18-26 17q-39 12-77 12-90 1-157-47t-68-114z m66 559q11-79 61-136t109-58q59-2 94 52t25 133-59 134-110 57-95-51-25-131z m555-24l0 50 200 0 0 200 50 0 0-200 201 0 0-50-201 0 0-201-50 0 0 201-200 0z" horiz-adv-x="1184" />
<glyph glyph-name="wikipedia" unicode="&#xe848;" d="m0 677l0 21 2 2 249 0 2-2 0-20q0-8-10-8l-26-1q-33-1-33-20 0-13 7-28 50-122 222-484l6-1 111 221q-13 30-22 49l-76 150-20 40q-26 51-34 61t-33 13q-14 2-14 7l0 21 3 2 197 0 5-1 0-21q0-8-10-8l-15-2q-13-2-19-5t-5-12 4-17 14-31l73-150 81 162q16 32 5 43-6 8-37 11l-9 1q-4 0-7 3-3 1-3 6l0 19 3 2q57 1 186 0l2-2 0-20q0-8-9-8-22-1-30-4t-17-16q-23-34-30-48l-105-196-3-7 128-262 8-3 202 481q12 28-3 41-13 12-39 13l-19 1q-3 0-6 3-4 2-4 6l0 20 3 2 229 0 2-2 0-20q0-7-9-9-46-2-66-19-20-16-34-49l-250-567q-10-23-22-30t-24 1-23 30q-38 75-122 263-105-216-131-264-41-71-71-1-32 75-130 285t-130 286q-16 42-28 52-11 10-52 13-14 2-14 7z" horiz-adv-x="1106" />
<glyph glyph-name="lanyrd" unicode="&#xe849;" d="m0 739q-1 11 6 20t14 17 23 15 27 13 33 14 35 15q54 22 97 16t54-35q25-67 102-320t116-361q268 88 326 105 16 6 37 4t33-23q23-47 32-99t1-74q-19-15-60-32t-75-29-90-29-73-23q-10-3-38-13t-53-19-58-19-61-17-54-12-45-3-25 9q-18 18-32 52t-29 87-19 66q-42 125-113 338t-104 313q-6 13-7 24z" horiz-adv-x="940" />
<glyph glyph-name="calendar" unicode="&#xe84a;" d="m0-102l0 775 92 0q0 29 1 39t4 32 11 30 25 16 40 8 41-8 24-16 11-30 4-32l0-39 55 0 0 39t4 32 12 30 24 16 40 8q18 0 31-4t22-8 14-17 9-19 4-24 1-25l0-28 54 0 0 28t2 25 4 24 8 19 15 17 21 8 31 4q24 0 41-8t24-16 11-30 4-32l0-39 92 0 0-775-776 0z m65 177l0-112 139 0 0 112-139 0z m0 22l139 0 0 119-139 0 0-119z m0 141l139 0 0 130-139 0 0-130z m0 151l139 0 0 112-139 0 0-112z m71 203q0-33 37-33t37 33l0 130q0 33-37 33t-37-33l0-130z m89-517l0-112 152 0 0 112-152 0z m0 22l152 0 0 119-152 0 0-119z m0 141l152 0 0 130-152 0 0-130z m0 151l152 0 0 112-152 0 0-112z m126 203q0-33 37-33 38 0 38 33l0 130q0 33-38 33-37 0-37-33l0-130z m47-517l0-112 152 0 0 112-152 0z m0 22l152 0 0 119-152 0 0-119z m0 141l152 0 0 130-152 0 0-130z m0 151l152 0 0 112-152 0 0-112z m168 203q0-33 38-33 37 0 37 33l0 130q0 33-37 33-38 0-38-33l0-130z m5-517l0-112 140 0 0 112-140 0z m0 22l140 0 0 119-140 0 0-119z m0 141l140 0 0 130-140 0 0-130z m0 151l140 0 0 112-140 0 0-112z" horiz-adv-x="776" />
<glyph glyph-name="stumbleupon" unicode="&#xe84b;" d="m0 143l0 181 224 0 0-179q0-28 20-48t49-21 50 20 20 49l0 423q0 117 87 200t205 82 206-83 86-201l0-92-134-40-89 42 0 80q0 29-20 49t-49 20-49-20-21-49l0-417q0-120-86-205t-206-84q-121 0-207 85t-86 208z m724-3l0 183 89-42 134 40 0-184q0-29 20-49t49-21 49 21 20 49l0 187 224 0 0-181q0-121-85-207t-207-86-207 85-86 205z" horiz-adv-x="1309" />
<glyph glyph-name="fivehundredpx" unicode="&#xe84c;" d="m0 236l119 0q5-40 30-64t64-24q48 0 77 33t28 81q0 48-28 79t-75 31q-38 0-65-24t-51-25q-53 0-80 2 9 52 29 161t28 164l330 0 0-98-243 0q-14-71-24-134l3 0q17 21 51 32t65 11q113 0 160-103 24 60 72 94t111 34q49 0 91-19t66-42 63-66q3-3 5-5t4-4l4-5q35 40 50 56t46 40 62 35 70 9q90 0 145-60t55-152q0-93-55-156t-147-63q-116 0-226 131-7-7-39-38t-42-40-37-25-52-23-58-6q-63 0-111 33t-74 92q-62-128-203-128-95 0-156 48t-62 138z m515 30q0-42 26-68t67-26q75 0 155 95-34 35-48 49t-47 33-64 19q-39 0-64-31t-25-71z m389 0q27-29 46-45t49-33 61-16q43 0 68 28t24 70q0 42-25 70t-68 28q-25 0-49-11t-36-22-38-36-32-33z" horiz-adv-x="1262" />
<glyph glyph-name="pinterest" unicode="&#xe84d;" d="m0 491q0 63 27 125t76 115 130 86 178 33q159 0 261-98t102-231q0-171-86-282t-224-112q-45 0-84 21t-56 51l-40-158q-5-19-13-38t-17-38-19-34-19-30-17-24-13-16l-6-8q-3-4-8-3t-6 6q0 1-1 14t-3 27-3 38-1 44 3 48 7 48q11 47 74 313-8 16-13 39t-5 36l-1 15q0 64 33 107t78 42q37 0 58-24t20-62q0-23-8-56t-23-77-20-71q-10-45 18-78t73-33q79 0 131 90t51 216q0 97-63 159t-176 61q-126 0-204-81t-79-194q0-67 38-113 13-15 8-32-2-5-6-23t-6-23q-2-11-10-14t-18 0q-59 24-88 83t-30 136z" horiz-adv-x="774" />
<glyph glyph-name="bitcoin" unicode="&#xe84e;" d="m16 471q33 132 125 227t221 133 260 4 227-126 133-220 4-260-126-228-220-132-260-4-228 125-132 221-4 260z m228-271l72-18q7-1 20-5t19-5l-23-91 55-14 22 90q6-2 21-6t23-5l-22-90 55-13 22 91q48-8 85-8t66 21 43 61q32 90-51 133 60 13 70 80 13 86-110 126l23 91-55 13-22-88q-8 2-23 5t-21 6l22 88-55 14-22-90q-15 2-35 8l-76 19-14-59 39-9q28-7 26-32l-26-103q2 0 6-2-1 1-3 1t-3 1l-36-144q-5-18-25-13l-40 10z m183 23l30 121q1 0 19-4t28-7 28-9 29-13 21-17 14-22 0-27q-3-11-9-19t-15-12-19-7-23-3-23 2-24 4-22 4-19 5-15 4z m44 176l27 110q3-1 12-3t17-4 18-5 19-6 18-9 15-11 11-13 6-17-1-19q-3-13-11-22t-19-11-22-5-27 1-24 4-23 6-16 4z" horiz-adv-x="1001" />
<glyph glyph-name="w3c" unicode="&#xe84f;" d="m0 647l77 0 107-363 72 244-35 119 77 0 107-363 107 363 290 0 0-36-109-188q58-20 86-67 30-50 30-114 0-82-43-137t-112-55q-51 0-90 33-39 34-56 89l60 25q13-34 35-54 20-19 51-19t52 34q22 34 22 84 0 52-23 83-27 34-83 34l-30 0 0 36 103 178-124 0-7-12-152-511-7 0-110 370-111-370-7 0z m818-417l18-50q15-33 33-58 42-58 94-67 45-9 88 18 19 12 35 31 20 20 28 36 4 7 11 20l-11 59q-8-16-16-28t-12-17l-4-4q-34-37-61-49-33-15-68-11-27 2-60 24-36 31-43 43-13 18-32 53z m27 195q0 84 33 146 16 30 38 48t42 20q35 4 70-26 18-15 37-50l44 87 12-76-44-85q-8 16-19 30t-18 20l-8 6q-31 22-64 15-24-5-47-30t-35-59q-19-55-19-106-1-40 5-63-12 22-19 53t-7 51z" horiz-adv-x="1125" />
<glyph glyph-name="foursquare" unicode="&#xe850;" d="m0 410q0 105 77 180t184 74q85 0 153-48t94-124l66 64 158-152 437 446 0-405-267-206 34-36-363-353-316 307q-107 2-182 76t-75 177z m37 0q0-90 65-153t157-63q33 0 65 9l220-195 585 460 1 302-578-596-90 146q20 43 20 90 0 89-65 153t-158 63-157-63-65-153z m48-2q0 70 50 120t119 49 120-49 49-120q0-70-49-119t-120-50-119 50-50 119z" horiz-adv-x="1169" />
<glyph glyph-name="html5" unicode="&#xe851;" d="m0 649l699 0-66-710-284-81-284 81z m65 60l0 133 45 0 0-44 40 0 0 44 44 0 0-133-44 0 0 44-40 0 0-44-45 0z m65-205l24-266 1 2 300 0-10-113-96-27-97 28-6 68-88 0 12-136 179-51 179 51 25 267-319 0-8 89 335 0 8 88-439 0z m84 293l0 45 122 0 0-45-39 0 0-88-44 0 0 88-39 0z m141-88l0 133 47 0 27-46 28 46 47 0 0-133-43 0 0 68-32-50 0 1-30 47 0-66-44 0z m172 0l0 133 44 0 0-88 62 0 0-45-106 0z" horiz-adv-x="699" />
<glyph glyph-name="ie" unicode="&#xe852;" d="m1-2q-3 35 7 59 39 140 92 239 114 216 313 352l0 14q-59-25-119-65t-102-81-76-78-50-60l-17-23q-2 59 16 115t45 94 54 67 47 43l19 13q4 2 10 6t28 13 43 19 55 17 64 12 70 2 74-12q64 47 128 73t98 29l33 3q50 5 77-16t31-55 0-68-12-60l-9-24-5 5q21 57 20 94t-17 56-37 29-36 10l-16 2q-4 0-12 0t-32-5-49-13-60-25-69-41q69-11 123-42t86-70 54-85 31-89 13-78 4-56l-1-22-557 0q-3-42 10-73t34-45 41-23 36-9l15-1q4 0 11 1t27 5 34 14 31 29 22 46l292 0q-16-59-47-107t-68-77-78-51-79-32-68-16-48-7l-19 0q-78 0-107 6-60-47-127-73t-103-30l-36-3q-46 0-78 24t-41 56-13 68z m75 5q0-24 3-42t8-29l4-9q4-3 11-8t33-13 57-8 82 16 108 50q-8 2-22 6t-50 18-69 31-67 48-53 64q-22-34-33-67t-12-57z m283 424l265 0q1 36-12 63t-32 39-38 19-33 8l-14 1q-6 0-15-1t-33-8-42-19-33-39-13-63z" horiz-adv-x="943" />
<glyph glyph-name="call" unicode="&#xe853;" d="m2 593q2 17 15 32l120 120q14 12 21-4l97-182q8-16-5-31l-44-44q-12-12-14-31 0-30 31-77t61-80l31-32q14-14 36-34t72-54 80-34q19 0 32 13l52 52q14 14 30 4l175-103q7-4 8-10t-4-12l-120-120q-15-13-32-15-49-7-111 14t-114 54-97 69-72 60l-26 25q-10 10-27 28t-57 69-71 100-52 112-15 111z" horiz-adv-x="800" />
<glyph glyph-name="grooveshark" unicode="&#xe854;" d="m0 350q0 136 67 251t182 182 251 67 251-67 182-182 67-251-67-251-182-182-251-67-251 67-182 182-67 251z m129 0q0-65 36-77 5-2 17-4 42-1 85 40 41 36 58 90 25 77 10 200-2 12-2 17-3 6 0 9 1 3 13-1 38-10 78-29 46-21 102-70 45-39 87-89 33-39 80-104 41-57 88-77 29-10 48-7t29 20 15 37 4 45q0 48-12 96-3 12-8 28-14 43-41 84-52 79-135 124t-178 45q-66 0-125-22-80-28-140-89t-89-142q-1-5-4-14t-5-14q-12-50-11-96z" horiz-adv-x="1000" />
<glyph glyph-name="ninetyninedesigns" unicode="&#xe855;" d="m0 710q-1 5 3 10t8 5q11 2 31 7t28 6q0 17 1 50t1 48q2 12 13 12 14 0 14-14-2-60-2-91 11 2 35 7t35 8q18 4 55 10t56 10q402 69 794 72 6 0 10-4t2-11q0-11-2-33t-2-33q42-3 128-11 5 0 9-4t3-10q-23-137-68-412t-68-413q50-8 76-12 8-1 11-8t-1-13-10-6l-3 0q-13 2-39 6t-39 7q-1-12-5-31-2-9-10-11-1-1-4-1l-4 0q-297 75-600 117-100 2-149 2-55 0-165-2l0-1q1-1 1-2 1-6-4-11t-11-4q-11 0-12 11 0 5-1 15t-3 17l-13 0q-8 0-10 7t1 14 11 6l8 0-6 54q-6 40-25 195t-35 251-43 191z m30-8q21-78 43-201-3 70-3 209-16-2-40-8z m67-91q1-193 21-424 3-40 11-109 1-9 3-19t3-22 3-19q67-3 192-13t182-13q354-20 483-35 11 160 33 455t29 411q-468-4-960-107-1-53 0-105z m92-163q0-68 43-111t108-43q69 0 109 43l2 0q-13-70-65-111-41-33-101-38-40-4-52-2l0-75q35 0 57 2 107 8 171 68 87 82 87 233 0 94-47 154t-132 59q-78 0-129-53t-51-126z m94 6q0 45 23 74t58 28l1 0q43 0 65-35t21-91q0-16-5-26-26-42-81-42-38 0-60 26t-22 66z m89-477l96-10 373-40q140-30 209-48l3 18q-55 9-165 25-249 35-516 55z m192 471q0-68 43-111t108-43q69 0 110 43l1 0q-13-70-64-111-42-33-102-38-40-4-52-2l0-75q35 0 57 2 107 8 171 68 87 80 87 233 0 94-47 154t-131 59q-78 0-129-53t-52-126z m94 6q0 45 23 74t58 28l1 0q43 0 65-35t21-91q0-16-5-26-26-42-81-42-38 0-60 26t-22 66z m357-524q28-4 43-6 20 120 65 392t68 417q-13 1-35 3t-42 4-36 2q-6-85-27-366t-31-436q0-5-4-9-1 0-1-1z" horiz-adv-x="1220" />
<glyph glyph-name="forrst" unicode="&#xe856;" d="m0-150l417 1000 417-1000-369 0 0 135 170 85-13 55-157-79 0 67 98 52-14 57-84-45 0 87-92 0 0-157-86 59-16-64 102-70 0-182-373 0z" horiz-adv-x="834" />
<glyph glyph-name="digg" unicode="&#xe857;" d="m0 152l0 372q0 13 13 13l176 0 0 129q0 14 13 14l98 0 0-514q0-14-12-14l-288 0z m109 83l67 0q13 0 13 14l0 206-67 0q-13 0-13-14l0-206z m225-83l0 372q0 13 13 13l98 0 0-371q0-14-12-14l-99 0z m0 445l0 69q0 14 12 14l99 0 0-69q0-14-12-14l-99 0z m149-445l0 372q0 13 13 13l288 0 0-504q0-13-13-13l-288 0 1 69q0 14 12 14l176 0 0 49-189 0z m110 83l67 0q12 0 12 14l0 206-67 0q-12 0-12-14l0-206z m229-146q0 14 13 14l176 0 0 49-189 0 0 372q0 13 13 13l287 0 0-504q0-13-12-13l-288 0 0 69z m109 146l67 0q13 0 13 14l0 206-67 0q-13 0-13-14l0-206z" horiz-adv-x="1122" />
<glyph glyph-name="spotify" unicode="&#xe858;" d="m0 350q0 136 67 251t182 182 251 67 251-67 182-182 67-251q0-101-38-192t-107-160q-60 73-145 114t-183 41q-107 0-199-49t-151-135q-83 71-130 170t-47 211z m164 144q0-17 12-29t30-13q6 0 9 1 144 58 298 58t298-58q1 0 4 0t5-1q17 0 30 13t12 29q0 25-23 37-159 63-326 63-170 0-329-64-20-13-20-36z m46-149l6-16q8-13 23-13 3 0 9 2 127 55 265 55 139 0 267-56 4-2 7-2 15 0 23 13l5 17q0 13-10 21-138 62-292 62-153 0-293-62-10-10-10-21z m48-144q10-25 31-16 108 51 224 51 112 0 219-48 24-13 35 12 5 13 0 23t-14 15q-106 53-240 53-128 0-244-55-19-10-11-35z m61-317q37 48 92 76t116 28q114 0 193-86-104-52-220-52-94 0-181 34z" horiz-adv-x="1000" />
<glyph glyph-name="reddit" unicode="&#xe859;" d="m0 353q0 62 50 106t112 44q62 0 105-36l5 0q134 82 335 82l5 4 70 267 242-36q0-1 2-1 1 0 0 1 2 1 12 16t14 18q34 32 82 32 49 0 83-32t33-82-33-84-83-35q-57 0-87 39t-30 96q-2-1-97 13t-110 17l-3 0q-2-2-16-53t-30-109-18-64l0-3 5-4q72 0 148-20t130-58l3-2q1 1 2 1t2 1q25 18 36 25t29 13 43 6q68 0 116-48t48-117q0-47-26-86t-70-60q0-195-260-303-41-18-56-23-32-10-91-19t-93-9q-120 0-231 35-2 2-72 38-95 51-152 116t-58 156l-5 0q-33 17-59 50l-9 12q-15 27-19 46t-4 50z m34-12q0-66 57-112 5 59 48 116t101 101q-37 26-82 26-49 0-86-40t-38-91z m102-146q0-54 31-104t80-85 102-60 105-34q75-14 146-14 123 0 233 39t185 123l-3 0q30 38 43 69t13 72q0 54-26 103t-70 84-92 61-100 38q-85 23-181 23-74 0-151-18t-150-54-119-99-46-144z m186 73q0 37 23 60t59 22 62-22 25-60q0-36-25-60t-62-24-59 24-23 60z m36-164l44 0q25-45 80-68t111-24q58 0 110 24t84 68l41 0q-25-62-93-96t-142-34q-72 0-141 35t-94 95z m336 164q0 38 23 60t61 22q34 0 58-24t24-58-24-59-58-25q-37 0-60 24t-24 60z m255 468q0-35 25-60t60-25q36 0 59 25t23 60q0 34-24 58t-58 24-59-24-26-58z m14-281q55-36 95-92t56-120q59 43 59 96 0 58-35 100t-93 42q-45 0-82-26z" horiz-adv-x="1205" />
<glyph glyph-name="guest" unicode="&#xe85a;" d="m0 108q0 22 12 64 23 87 87 158t147 103q-79 63-79 161 0 86 63 146t148 60 149-60 62-146q0-97-77-160 106-38 177-127t71-198q0-92-73-106-3-10-13-26-6-16-23-29t-49-20-49-12-57-9-39-5q-2 0-7-1t-7-1l-120 0q-51 0-129 16t-89 45q-17 17-25 42-25 5-42 21-38 15-38 84z" horiz-adv-x="760" />
<glyph glyph-name="gowalla" unicode="&#xe85b;" d="m0 338l0 103q0 87 86 200t171 160q78 44 187 44 44 0 89-10t85-31 67-58 25-85q0-13-2-24t-7-24-9-21-14-21-14-19-17-19-17-17-18-18-18-16l168 0q2-72 2-108 0-253-42-326-35-61-94-108t-128-70q-39-15-56-15l-84 0q-3 0-48 17-120 53-120 174 0 4 1 11t0 10q-134 69-180 215-13 42-13 56z m146 130q0-40 10-81t28-79 53-62 76-24q12 0 40 15t49 15q14 0 51-10t37-20q0-21-26-21-130 0-130-76 0-58 42-87t103-30q47 0 92 17t73 49q42 50 42 164 0 19-1 56t-1 54q0 48 5 80l-193 0q-1-8-1-23 0-11 1-34t1-35q0-35-8-56-5-1-17-1-48 0-80 33t-44 74-12 89q0 45 12 91t43 84 77 38q10 0 21-3-4-22-4-34 0-35 19-58t53-23 57 23 23 58q0 41-31 70t-70 40-79 11q-135 0-223-85t-88-219z" horiz-adv-x="764" />
<glyph glyph-name="appstore" unicode="&#xe85c;" d="m1 351q-1-18-1-36 0-68 20-144 26-97 83-184 89-136 172-137 30 0 78 21t95 21l4 0q46 0 91-20 47-22 76-22 49 1 91 41t85 104q31 48 65 121-50 19-85 57t-48 85q-10 35-9 70l0 24q4 48 34 92t78 70q-38 48-89 75t-103 27q-48 0-105-21t-86-22q-30 0-90 22t-102 21q-58 0-114-33t-96-93q-37-56-44-139z m415 258q-3 15-3 30 0 65 53 129 27 33 70 56t82 26q2-15 2-30 0-69-50-132-28-36-70-58-41-22-80-21l-4 0z" horiz-adv-x="860" />
<glyph glyph-name="blogger" unicode="&#xe85d;" d="m0 165l0 369q0 130 93 223t223 93l221 0q65-8 139-57t104-115q1-2 5-9t5-10 4-10 4-12 3-16 4-22 4-29q9-70 26-85 14-13 71-14t65-8l14-11 8-17 3-14-2-256q-1-130-93-223t-222-92l-363 0q-130 0-223 92t-93 223z m259 5q0-25 18-42t43-18l356 0q25 0 43 18t17 42-17 43-43 17l-356 0q-25 0-43-17t-18-43z m0 362q0-25 18-43t43-18l175 0q25 0 43 18t17 43-17 43-43 17l-175 0q-25 0-43-17t-18-43z" horiz-adv-x="996" />
<glyph glyph-name="cc" unicode="&#xe85e;" d="m0 350q0 98 38 191 37 90 110 163 144 146 351 146 209 0 357-146 71-71 107-162 37-89 37-192 0-104-36-192-36-89-107-159-74-72-166-111-94-38-192-38-97 0-190 38-89 37-162 110t-110 162-37 190z m90 0q0-79 32-155 31-75 91-133 60-60 133-89 72-31 155-31 81 0 156 31 74 31 136 90 117 114 117 287 0 85-31 157-30 76-88 132-120 121-290 121-171 0-288-120-59-59-91-134-32-76-32-156z m125 0q0 71 42 113 41 42 105 42 92 0 133-72l-67-35q-11 24-27 31-15 9-29 9-67 0-67-88 0-39 17-64 18-24 50-24 44 0 62 42l62-31q-21-36-55-57-35-21-77-21-67 0-108 41t-41 114z m289 0q0 71 42 113t105 42q93 0 132-72l-66-35q-11 23-26 31-17 9-30 9-67 0-67-88 0-41 17-64 17-24 50-24 43 0 61 42l63-31q-22-37-56-57-35-21-75-21-69 0-109 41-41 41-41 114z" horiz-adv-x="1000" />
<glyph glyph-name="dribbble" unicode="&#xe85f;" d="m0 350q0 136 67 251t182 182 251 67 251-67 182-182 67-251-67-251-182-182-251-67-251 67-182 182-67 251z m83 0q0-156 105-275 48 94 152 179t203 107q-15 35-29 63-172-55-372-55-39 0-58 1 0-4 0-10t-1-10z m13 103q22-2 65-2 167 0 317 45-76 135-167 225-79-40-135-111t-80-157z m149-432q113-88 255-88 74 0 147 28-20 171-78 331-92-20-185-101t-139-170z m153 732q88-91 163-227 136 57 205 145-116 96-266 96-51 0-102-14z m199-298q15-32 34-81 74 7 161 7 62 0 123-3-8 136-98 242-65-97-220-165z m59-151q51-148 69-304 79 51 129 131t60 173q-73 5-133 5-55 0-125-5z" horiz-adv-x="1000" />
<glyph glyph-name="evernote" unicode="&#xe860;" d="m0 541q0 40 15 58 9 14 26 21 18 9 47 9l94 0q15 0 26 11t11 26q0 21-1 44l0 59q0 25 12 44 15 21 50 31 11 6 53 6l19 0q59-2 98-17 38-16 45-62 26 1 48 1 53 0 89-5 97-12 129-24 42-13 53-67 10-55 18-210 5-89 5-147 0-44-3-71-16-172-43-254-14-42-28-69t-27-42-37-23-42-9-59-1q-108 0-145 25t-38 107q0 45 10 72t33 37 46 13q15 1 40 1l28 0q4 0 6-1t0-5-2-8-3-11-2-13q0-9 2-18t1-12-7-3l-20 0t-10 0-10-2-8-2-8-4-6-6-4-9-1-12q0-14 4-23t8-14 18-7 22-2l32 0q57 0 73 13t16 64q0 76-18 103t-57 31q-88 9-119 20-53 20-53 119 0 2-2 2t-3-2q0-67-18-120l-8-24q-11-25-37-26l-6 0q-24 0-54 8-127 16-198 47-24 11-37 40-17 35-35 129t-24 133q-4 33-4 51z m6 119l0 2 183 180q0 1 1 1l-3-6q-11-20-11-48 0-22 1-103 0-10-10-10l-93 0q-34 0-59-11-5-3-9-5z m568-290q21 3 46 3 45-1 81-18 0 85-61 87l-3 0q-30 0-44-20-15-21-19-52z" horiz-adv-x="837" />
<glyph glyph-name="flickr" unicode="&#xe861;" d="m0 350q0 104 73 177t177 73 177-73 73-177-73-177-177-73-177 73-73 177z m552 0q0 104 73 177t177 73 177-73 73-177-73-177-177-73-177 73-73 177z" horiz-adv-x="1052" />
<glyph glyph-name="google" unicode="&#xe862;" d="m0 32q0 87 89 155t215 68l54 0q-42 40-42 86 0 29 16 58-10-1-29-1-104 0-170 65t-66 160q0 91 82 159t187 68l310 0-69-50-98 0q47-18 74-68t26-111q0-93-88-162-37-29-48-46t-11-42q0-19 27-48t54-49q61-43 85-88t23-113q0-90-82-157t-222-66q-133 0-225 50t-92 132z m112 33q0-69 59-118t145-48q119 0 173 44t53 117q0 19-4 32-3 11-7 21t-12 19-14 16-19 16-21 15-25 18-26 17q-39 12-77 12l-4 0q-87 0-153-47-68-48-68-114z m66 559q11-79 61-136t109-58l4 0q56 0 90 52 27 42 27 99 0 16-2 34-10 79-59 134t-110 57l-4 0q-57 0-91-51-27-41-27-98 0-16 2-33z" horiz-adv-x="646" />
<glyph glyph-name="viadeo" unicode="&#xe863;" d="m0 217q0-147 101-257t260-110q158 0 259 110 101 108 101 257 0 78-27 146-40-25-85-34 22-51 22-114 0-76-36-142-37-66-99-101-62-36-135-36-75 0-136 36-63 37-98 101-37 65-37 142 0 117 80 202 80 83 191 83 51 0 98-19 4 39 27 86-57 21-125 21-160 0-266-118-95-107-95-253z m280-253l56-4q74 47 125 109t72 124 31 126q6 41 6 80 0 21-2 40-5 55-12 99t-16 68l-9 25q-22 68-43 119t-32 67l-11 17q39-20 63-48 23-29 28-53 4-20 4-39l0-7q-1-22-6-35l-5-13q4-58 5-112 0-52-5-102-9-100-30-167t-50-121-57-86-55-52-41-28z m275 637q4 40 23 64l18 25q12 14 39 27t48 18l21 6q36 8 67 35t43 51l13 23q41-57 49-129 4-32 3-57 0-34-6-59l-11-45q-12-33-33-60t-37-37l-15-11q-34-20-67-20l-109 53q58 32 101 65t64 58 33 44 14 31l2 10q-18-40-48-73t-62-52-61-32-47-19l-18-5q-25 44-25 79 0 5 1 10z" horiz-adv-x="879" />
<glyph glyph-name="instapaper" unicode="&#xe864;" d="m0-117q102 6 130 27 30 21 30 107l0 666q0 82-30 106-28 23-130 28l0 28 489 0 0-28q-102-4-131-28-30-24-30-106l0-666q0-86 30-107t131-27l0-28-489 0 0 28z" horiz-adv-x="489" />
<glyph glyph-name="weibo" unicode="&#xe865;" d="m0 178q0 161 184 347 117 116 236 162 56 23 97 23 45 0 72-27 26-26 26-72 0-31-12-72-4-14 3-17t16-1l10 4q96 40 170 40t106-42q15-22 15-52 0-31-16-71-7-10-2-17t8-9 14-5q62-19 106-62t44-107q0-59-41-120t-111-113-178-84-229-33q-131 0-247 38t-194 116-77 174z m125-48q10-101 125-161 92-49 209-49 29 0 60 3 153 15 255 97 92 75 92 165 0 9-1 18-10 100-125 160-93 49-210 49-29 0-59-3-101-10-183-51t-126-101q-38-53-38-109 0-9 1-18z m160-62q-13 29-13 59 0 35 18 70 31 64 104 96 45 20 91 20 27 0 54-7 76-20 109-82 17-32 17-66 0-32-15-65-31-71-109-104-44-19-88-19-34 0-67 11-73 23-101 87z m56 19q6-25 30-35 13-6 27-6 12 0 24 4 28 9 43 33 10 16 10 32 0 7-3 15-6 24-30 34-13 5-26 5-12 0-25-4-27-9-41-32-11-16-11-33 0-7 2-13z m141 79q3-9 13-13 5-2 10-2t9 2q11 4 16 13t2 18-12 13q-9 3-19 0t-16-13q-3-6-3-12l0-6z m321 621q-1 5-1 10 0 13 8 25 10 16 29 21 34 7 68 7 51 0 100-15 83-27 143-93t78-153q7-35 7-68 0-51-16-98l0-1q-6-18-23-27-11-5-22-5-7 0-15 2-19 6-27 23-5 11-5 21 0 8 2 15l0 1q11 34 11 70 0 23-4 48-13 62-56 109t-102 66q-35 10-70 10-24 0-49-5-5-1-10-1-14 0-26 8-16 11-20 30z m40-157q-1 5-1 10 0 10 6 21 9 14 26 18 19 4 37 4 67 0 115-53 29-33 38-75 3-17 3-33 0-24-8-48-5-16-20-23-9-5-18-5-7 0-13 2-16 5-24 20-4 9-4 18 0 7 2 13 4 14 4 26 0 28-21 50-22 26-54 26-10 0-20-2-5-1-9-1-11 0-21 7-14 9-18 25z" horiz-adv-x="1235" />
<glyph glyph-name="klout" unicode="&#xe866;" d="m0-150l0 1000 257 0 0-371 229 0q85 123 257 371l286 0-328-477q0-12 97-143t192-256l96-124-343 0q-47 66-143 200t-143 200l-200 0 0-400-257 0z" horiz-adv-x="1086" />
<glyph glyph-name="linkedin" unicode="&#xe867;" d="m0 730q0 50 35 83t91 32q55 0 89-32 35-33 35-86 0-48-34-80-35-33-92-33l-1 0q-55 0-89 33t-34 83z m13-875l0 668 222 0 0-668-222 0z m345 0l222 0 0 373q0 35 8 54 14 34 43 58t71 23q112 0 112-151l0-357 222 0 0 383q0 148-70 225t-185 76q-129 0-201-111l0-2-1 0 1 2 0 95-222 0q2-32 2-199t-2-469z" horiz-adv-x="1036" />
<glyph glyph-name="meetup" unicode="&#xe868;" d="m0 390q0 35 2 105 24 8 48 8l18 0q17-23 40-70t31-61q2 7 8 37t10 42 11 37 16 40 19 31q28-5 46-5 6 0 11 1 24-54 46-163t38-155q-1 0-4 1l-3 1q-9 0-26-5t-22-7q-40 101-62 203-15-26-15-89t-11-88l-5 2q-8 0-22-2t-21-2l-18 0q-27 48-57 89-3-6-3-15t3-26 2-25l-1-12q-30-15-52-15-7 0-10 1-17 56-17 142z m355-76q0 27 8 58t28 57 47 26q10 0 28-5t23-6q9-40 9-81 0-28-6-55-12 4-38 5t-37 3q-5-20-5-37 0-21 10-37t30-16q9 0 26 5t26 5q17 0 23-14-42-16-82-16-46 0-68 30t-22 78z m58 28l8 1q3 0 8-2t7-2l7 3q2 14 2 22 0 18-5 40-22-25-27-62z m110-54q0 123 78 182 32-3 60-23-1-17-8-67-5-39-5-65l0-14q-20-2-29-2-8 0-43 5-5-12-5-23 0-22 17-37t39-16q26 0 41 23 18-6 21-17-22-21-63-21-37 0-70 20t-33 55z m56 43q4-6 14-6l9 0q9 19 9 49 0 13-6 39-3-8-10-25t-11-30-5-27z m99 19q-2 26 23 26 6 0 18-1t17-1q3 15 3 31 0 29-7 87t-8 86q0 43 10 72 5-3 27-5t40-25q-6-26-6-67 0-20 4-81 2-35 2-61 0-20-1-34l6 0q7 0 9 6t2 13 4 6q8 0 19-8t22-22 15-16q-9-7-40-9t-39-4q-1-12-1-36 0-16 1-33t1-38 1-33q-8-1-23-2t-22-2l0 20q0 21-3 57-4 44-4 61-6 2-32 4t-38 9z m215 8q0 20 2 58 11-1 20-5t21-10 18-10l-1-27q0-59 9-116 19 7 31 23t17 42 5 42 2 44l0 11q3-1 9-1 20-2 49-25 0-3 1-9t0-10q0-15-4-30t-7-22-15-25-14-23q-15-12-34-42-21-7-38-7-71 0-71 142z m200-108q7 6 24 10 0 3 1 9 4 35 7 57t13 59 22 59 35 40 53 17q34 0 76-24 17-37 17-75 0-66-46-119t-113-68q-2-32-2-48 0-73 18-117-8 2-37 2-15 0-22 2-9 21-16 96t-30 100z m90 25q39 10 66 48t26 79q0 30-15 56-23-21-39-55t-23-60-15-68z" horiz-adv-x="1341" />
<glyph glyph-name="vk" unicode="&#xe869;" d="m0 654q10 8 25 12 14 4 25 4l9 0q10 0 24-1 22-1 32-1 6 0 38 2 16 1 29 1t23-1q20-2 32-8 6-3 13-13t12-19 11-25 10-22q38-82 94-163 2-3 7-11t9-12 9-12 10-11 11-8 11-6 12 0q28 5 31 117 1 19 1 35 0 74-15 102-6 11-15 18t-25 12-23 10q14 28 50 37t96 9l53 0t26 0 27-3l22-6t20-9 12-14q9-18 11-42 0-7 1-14 0-20-3-52-4-42-4-52-3-23-3-46 0-18 2-38 4-44 30-61 9 1 17 4t15 11 11 12 13 16 10 14q47 62 94 163l9 23t12 26 12 20 15 13q16 7 38 7l9 0q20 0 46-2 32-2 47-2 9 0 28 1t32 2 30-1 25-6 14-13q3-6 3-13 0-29-35-87-17-29-34-52t-46-58-37-47q-2-2-14-18t-17-24-12-22-5-27q0-8 3-15t10-15 10-12 13-13 12-11q71-65 112-117 40-52 40-75 0-33-51-41-26-4-53-4-21 0-43 3-20 2-37 2-26 0-45-5l-6 0q-66 11-139 94-4 4-17 21t-22 25-23 17-27 6q-23-4-30-29t-9-59-10-49q-13-24-79-24-28 0-66 4-78 8-141 40t-101 68-81 92q-104 133-197 322-3 6-11 23t-12 25-9 24-8 28-3 26z" horiz-adv-x="1220" />
<glyph glyph-name="plancast" unicode="&#xe86a;" d="m0 237q10 139 168 173 12 89 43 192t71 146q48 49 120 76t146 26q86 0 164-39t117-110q19-36 42-130t30-155q15-6 34-6 30 0 30 29 0 11-6 34t-5 35l0 4 1 0q27 0 61-51 34-52 34-81 0-20-9-35t-19-25-33-17-33-11l-36-8q-5-1-8-2l0-26q0-173-77-253l25-25q4-2 25-12t36-18 18-18q-65-51-132-51-34 0-75 17-88-37-180-37-118 0-234 61-36-8-55-19-7-4-26-18t-37-24-28-9q-3 18-3 37 0 79 53 126-60 99-62 257l-7 1-3 0q-30 1-76-17-48-18-64-19-4 0-10 2z m232-93q0-13 7-27 27-96 89-138 43-29 106-47t117-17q66 0 146 28t119 72q68 73 68 257 0 226-92 379-12 20-17 28t-19 15-33 8q-50 0-107-61-76 47-140 47-59 0-104-43t-71-104-42-141-22-141-5-115z m181 407q0 22 16 38t36 15q22 0 38-15t15-38-15-37-38-15q-21 0-36 15t-16 37z m56 18q0-12 12-12 5 0 9 4t3 8-3 9-9 4q-12 0-12-13z m94-60l2 2-1-3z m5 5l52 52 51-52q-22-7-50-7-29 0-53 7z m2-22q27-5 50-5 22 0 49 5l-49-49z m105 16l0 3 1-2z m27 43q0 22 16 38t37 15 38-15 15-38-15-37-38-15-37 15-16 37z m56 18q0-5 4-8t8-4q5 0 9 4t4 8q0 13-13 13-5 0-8-4t-4-9z" horiz-adv-x="1050" />
<glyph glyph-name="disqus" unicode="&#xe86b;" d="m0-132l0 957q121 21 297 21 140 0 236-24t165-77q165-125 165-370 0-260-161-395-148-126-451-126-143 0-251 14z m220 162q19-4 77-4l4 0q153 0 240 85 89 86 89 256 0 154-81 232t-229 78q-66 0-100-9l0-638z" horiz-adv-x="863" />
<glyph glyph-name="rss" unicode="&#xe86c;" d="m0-16q0 55 39 94t94 39 94-39 39-94q0-56-39-95t-94-38-94 39-39 94z m0 335l0 191q179 0 331-88t241-241 88-331l-192 0q0 194-137 331-138 138-331 138z m0 339l0 192q203 0 388-79t319-214 214-319 79-388l-192 0q0 164-64 314t-172 258-258 172-314 64z" horiz-adv-x="1000" />
<glyph glyph-name="skype" unicode="&#xe86d;" d="m0 577q0 113 80 193t193 80q78 0 145-42 36 7 80 7 195 0 333-138t138-332q0-49-11-101 28-59 28-121 0-113-80-193t-193-80q-68 0-129 32-45-8-86-8-194 0-332 138t-138 333q0 47 9 94-37 65-37 138z m221-366q0-41 30-85 71-104 246-104 50 0 97 11t87 34 66 64 25 94q0 58-29 98t-74 58-95 33-96 23-73 26-30 44q0 33 37 49t74 16q40 0 66-12t38-30 21-35 25-30 39-13q27 0 48 19t20 46-15 54q-30 55-95 80t-138 25q-46 0-89-9t-83-29-64-56-25-87q0-66 40-106t97-57 115-29 97-33 40-59q0-29-23-49t-50-27-57-7q-38 0-64 11t-39 27-22 35-18 35-23 27-37 10q-28 0-48-17t-21-45z" horiz-adv-x="986" />
<glyph glyph-name="twitter" unicode="&#xe86e;" d="m0-37q30-3 60-3 176 0 314 108-82 1-147 50t-89 125q20-4 47-4 35 0 67 9-88 17-145 87t-58 160l0 3q53-30 115-31-52 34-82 90t-31 120q0 68 35 127 94-117 230-186t290-78q-7 33-7 58 0 104 74 178t179 74q109 0 184-80 87 18 160 62-28-91-110-140 73 9 144 40-48-75-125-131l0-33q0-101-29-202t-90-194-145-165-201-115-253-42q-209 0-387 113z" horiz-adv-x="1230" />
<glyph glyph-name="youtube" unicode="&#xe86f;" d="m0 123q0 54 6 162 4 53 38 87t87 36q100 5 301 5t301-5q53-3 87-36t38-87q5-90 5-162t-5-162q-4-53-38-87t-87-36q-100-5-301-5t-301 5q-53 3-87 36t-38 87q-6 108-6 162z m67 141l61 0 0-326 59 0 0 326 61 0 0 55-181 0 0-55z m65 603l60 0 38-152 4 0 36 152 60 0-46-148q-23-73-23-75l0-158-59 0 0 151q-2 14-5 26t-9 26-9 25z m116-885q0-48 36-48 32 0 61 35l0-31 52 0 0 281-52 0 0-214q-21-21-31-21-14 0-14 19l0 216-52 0 0-237z m79 575l0 146q0 34 22 53t56 18q33 0 54-20t20-53l0-145q0-36-20-56t-56-21q-35 0-55 22t-21 56z m54-7q0-23 22-23 23 0 23 25l0 153q0 9-7 15t-16 6-15-5-7-15l0-156z m67-612l53 0 0 21q20-25 50-25 47 0 47 62l0 156q0 71-51 71-25 0-46-27l0 123-53 0 0-381z m53 53l0 176q11 11 22 11 22 0 22-28l0-148q0-24-19-24-14 0-25 13z m23 539l0 237 52 0 0-215q0-19 14-19 13 0 31 21l0 213 52 0 0-281-52 0 0 31q-29-35-61-35-36 0-36 48z m114-513q0-38 19-63t57-24q78 0 78 87l0 21-54 0q0-2 1-13t-1-17-2-14-7-12-14-3q-23 0-23 40l0 53 100 0 0 72q0 38-18 60t-57 22q-36 0-57-23t-22-59l0-127z m54 99l0 30q0 31 23 31t23-31l0-30-46 0z" horiz-adv-x="863" />
<glyph glyph-name="vimeo" unicode="&#xe870;" d="m0 578q55 65 110 116t96 78 72 43 48 21l17 4q12 2 24 2 19 0 35-6 26-10 43-34t29-55 21-72 15-78 14-79 14-71q32-125 52-177t41-53q24 0 67 56t93 151q26 48 26 91 0 13-2 23-9 52-51 65-11 4-24 4-35 0-83-26 22 130 134 209 85 60 174 60 12 0 24-1 102-8 139-90 18-38 18-88 0-29-6-61-18-102-69-208t-113-187-133-155-123-118-91-68q-42-24-78-24t-70 21-56 48-38 57q-18 38-97 299t-97 280q-1 2-4 4t-13 5-24 0-37-14-50-33z" horiz-adv-x="1146" />
<glyph glyph-name="windows" unicode="&#xe871;" d="m0-43l105 371q35 20 86 31t83 13l34 1q50 0 104-10 101-20 144-61l-104-370q-36 28-79 45t-69 21l-26 4q-34 3-65 3-16 0-42-1t-84-14-87-33z m126 477l105 371q35 20 86 32t84 12l33 1q51 0 104-10 101-20 144-61l-104-371q-36 28-79 46t-69 20l-26 4q-35 3-64 3-16 0-42-1t-84-13-88-33z m431-513l104 371q37-28 81-45t68-21l25-4q34-3 65-3 16 0 43 2t84 13 86 32l-104-371q-35-20-86-31t-84-12l-33-2q-51 0-104 10-101 20-145 61z m120 475l104 370q37-28 81-45t68-21l25-4q34-3 65-3 16 0 43 2t83 13 87 32l-104-370q-35-20-86-31t-85-13l-33-2q-52 0-103 11-101 19-145 61z" horiz-adv-x="1233" />
<glyph glyph-name="xing" unicode="&#xe872;" d="m0 152l219 0 173 286-130 229-219 0 130-229z m362 90l346 608 232 0-345-608 222-392-232 0z" horiz-adv-x="940" />
<glyph glyph-name="yahoo" unicode="&#xe873;" d="m0 641l6-19q4-6 8-10t5-5l2-2 19-10 111 0 287-344q11-12 11-25l0-192q0-8-2-12t-6-5l-3 0q-112 0-142-3-10 0-10-9l0-55 516 0 0 57q0 3-2 5t-5 2l-146 0q-9 0-9 15l0 202q-1 3 2 7t5 7l3 3q11 11 264 249l133 0q9 0 18 7l17 19q6 7 6 18l0 14q-1 3-3 5t-3 1l-438 0-7-6q-1-6 2-12t5-10l2-4 23-23 18-7 115 0-207-195-228 291 41 0q13-1 22 4l68 21q1 0 3 1t5 5 2 9l0 14q0 3-2 5t-4 2l-492 0q-8-1-10-7l0-8z m1190 109l185-7-83-567-61 3z m13-763l4 110 110-4-4-110z" horiz-adv-x="1375" />
<glyph glyph-name="chrome" unicode="&#xe874;" d="m0 327q0 75 23 156t62 144q62 104 183 164t248 59q130 0 250-81t182-202q50-86 50-214 0-150-71-266t-192-177-270-60q20 36 61 109t74 131 64 108l1 2q3 5 12 19t13 19 9 17 10 21 5 21q6 24 6 48 0 80-48 142l275 81q-285 0-428-1-7 1-22 1-99 0-165-74t-56-173q-2 9-2 28 0 44 15 77l-204 201 198-341q19-72 80-117t134-46q17 0 33 3l-66-276q-115 0-223 71t-175 176q-66 102-66 230z m312 19q0-77 55-131t130-55 131 55 54 131q0 76-54 131t-131 54-131-54-54-131z" horiz-adv-x="998" />
<glyph glyph-name="email" unicode="&#xe875;" d="m0 62l0 576q0 1 3 19l339-290-338-325q-4 14-4 20z m45 635q7 3 17 3l913 0q9 0 18-3l-340-291-45-36-89-73-89 73-45 36z m1-694l341 327 132-107 132 107 341-327q-8-3-17-3l-913 0q-8 0-16 3z m650 364l338 290q3-9 3-19l0-576q0-9-3-20z" horiz-adv-x="1037" />
<glyph glyph-name="macstore" unicode="&#xe876;" d="m0 237l0 151q0 10 7 18t18 7l265 0-115-201-150 0q-11 0-18 7t-7 18z m122-244l66-38z m10 44q-3 10 2 19l304 528q5 9 15 12t19-3l65-37q10-5 13-15t-3-20l-303-528q-5-9-15-11t-20 2l-65 38q-9 4-12 15z m308 175l115 201 67 0 94-201-276 0z m78 625q1 9 6 12 10 5 36-31t71-116 62-105q28-44 76-130t91-169 43-84q11-19-2-36t-31-24q-18-8-24-9t-30 7q-30 15-190 393-5 11-13 31t-17 38-19 42-18 44-17 42-14 39-8 32-2 24z m328-424l235 0q10 0 18-7t7-18l0-151q0-10-7-17t-18-8l-133 0q-4 16-8 23l-24 46q-64 121-70 132z m13-316q3 10 13 15l37 19q10 5 21 2t16-14l31-60q12-24-10-39l-27-16q-10-5-21-2t-17 12l-40 62q-6 10-3 21z m77-145q0 16 4 21t12 14l24 9q61 12 72-70 3-32-1-76-4 12-44 30t-55 38q-13 18-12 34z" horiz-adv-x="1106" />
<glyph glyph-name="myspace" unicode="&#xe877;" d="m0 175l0 350 140 0 0-207 805 0 0 207 141 0 0-350-1086 0z" horiz-adv-x="1086" />
<glyph glyph-name="podcast" unicode="&#xe878;" d="m0 331q0 141 67 261t182 189 251 69 251-69 182-189 67-261q0-4 0-10t-1-10q-8 208-152 353t-347 145-346-145-153-353q0 4 0 10t-1 10z m183 1q0 136 93 233t224 96 224-96 93-233q0-3 0-10t-1-10q-8 129-99 219t-217 90-217-90-99-219q0 3 0 10t-1 10z m166-195q0 33 5 59t10 43 19 29 23 18 28 10 31 4 35 0 35 0 31-4 29-10 23-18 18-29 11-43 4-59q0-118-44-203t-107-84-106 84-45 203z m47 280q0 44 31 76t73 32 74-32 30-76-30-76-74-32-73 32-31 76z" horiz-adv-x="1000" />
<glyph glyph-name="amazon" unicode="&#xe879;" d="m2 74q5 8 16 1 250-145 544-145 196 0 387 73 5 2 15 6t13 6q15 6 24-6t-6-22q-18-13-46-30-86-51-192-79t-207-28q-156 0-295 54t-249 154q-6 5-6 10 0 3 2 6z m301 285q0 69 34 118t93 74q54 23 133 33 27 3 88 8l0 17q0 64-14 86-21 30-66 30l-8 0q-33-3-57-21t-31-50q-4-20-20-23l-115 14q-17 4-17 18 0 3 1 7 17 89 84 132t155 48l25 0q114 0 178-59 10-10 19-21t13-21 9-26 6-23 3-28 1-26l0-242q0-26 8-47t14-31 23-31q6-9 6-16 0-8-8-14-83-72-90-78-12-9-29-2-14 12-24 23t-15 16-15 20-14 19q-56-61-110-76-34-10-84-10-77 0-126 48t-50 134z m172 20q0-39 20-62t52-24q3 0 9 1t7 1q42 11 65 54 11 19 17 42t6 36 0 46l0 25q-58 0-88-8-88-25-88-111z m420-322q2 4 6 8 25 17 48 23 38 10 74 11 10 1 19-1 45-4 54-15 4-6 4-18l0-7q0-35-19-83t-53-76q-5-4-9-4-2 0-4 1-6 3-3 11 37 87 37 121 0 11-4 16-10 12-56 12-17 0-40-2-25-3-46-6-6 0-8 2t-1 4q0 1 1 3z" horiz-adv-x="1100" />
<glyph glyph-name="steam" unicode="&#xe87a;" d="m0 470q0 55 39 94t93 39q47 0 84-29t46-75l502-202q32 19 68 19 2 0 7 0t7-1l110 159q1 73 53 125t125 51q74 0 126-52t52-126-52-126-126-52l-170-124q-5-51-43-85t-89-35q-48 0-84 30t-46 75l-502 201q-32-19-68-19-55 0-93 39t-39 94z m35 0q0-40 29-68t68-29q9 0 21 2l-41 16 0 1q-28 13-40 42-6 14-6 28 0 15 6 30 12 30 40 42 15 7 31 6 13 0 27-5l0 1 49-20q-29 52-87 52-40 0-68-28t-29-70z m710-333q29-52 87-52 40 0 69 29t29 69q0 40-28 69t-70 28q-14 0-21-2l40-16q30-12 43-42 7-15 7-30 0-14-6-29-12-31-42-43-15-6-30-6-14 0-29 6-8 3-24 10t-25 9z m270 335q0-49 35-84t84-35q50 0 85 35t35 84-35 84-85 35q-49 0-84-35t-35-84z m25 1q0-40 28-68t67-28q39 0 67 28t28 68q0 39-28 67t-67 28q-40 0-67-28t-28-67z" horiz-adv-x="1312" />
<glyph glyph-name="cloudapp" unicode="&#xe87b;" d="m0 202q0 104 74 178t176 74l1-1q0 3 0 7t-1 6q0 118 83 201t199 83q103 0 181-66t96-166l17 0q117 0 200-83t82-201-82-201-200-83q-8 0-12 1l0-1-578 0 0 1q-99 5-167 78t-69 173z" horiz-adv-x="1108" />
<glyph glyph-name="dropbox" unicode="&#xe87c;" d="m0 311l214 163-214 162 311 203 203-174 208 174 302-193-198-165 198-170-307-185-203 156-203-156z m213-251l0 57 94-55 203 155 1-1 0-355z m5 416l294-185 296 196-294 169z m293-615l1 355 2 1 202-155 100 60 0-63z" horiz-adv-x="1024" />
<glyph glyph-name="ebay" unicode="&#xe87d;" d="m0 285q0 31 5 54t22 46 46 39 84 24 128 9q88 0 148-13 39-8 58-18l0-161-293 0q0-21 2-33t9-31 27-27 49-9q85 0 85 61l121 0 0-89q-27-13-56-19-68-15-150-15-92 0-151 13t-87 39-37 56-10 74z m198 34l178 0q0 18-1 27t-9 23-27 22-54 7q-31 0-50-7t-27-23-8-24-2-25z m293-182l0 89 78 0q-1-51-74-87-2-2-4-2z m0 0q2 0 4 2 73 36 74 87l-78 0 0 39 81 0q1 12 1 23 0 45-13 76-16 39-69 62l0 183 107 0 0-203 2 0q31 44 88 44 43 0 69-26-40-29-40-102 0-104 76-122-1-31-5-54t-16-47-32-36-54-13q-64 0-91 50l-1 0 0-42-103 0 0 79z m0 128l0 161q53-23 69-62 13-31 13-76 0-11-1-23l-81 0z m107-11q0-77 9-107t35-31q28 0 37 31t9 107l0 5q0 35-1 52t-5 37-13 28-27 8q-16 0-25-8t-13-30-5-38-1-54z m119 68q0 73 40 102 17-18 26-53t10-55 0-64l0-52q-76 18-76 122z m8 159q0 69 40 94 34 26 101 26 4 0 49-3l107-218 0-102q0-14 2-39t2-34l-100 0-5 52-2 0q-33-58-100-58-18 0-26 1l0 52q0 43 0 64t-10 55-26 53q38 29 135 29l24 0 0 31q0 29-8 43t-36 14q-26 0-33-15t-7-45l-107 0z m97-154q0-62 41-62 13 0 23 5t15 14 10 18 4 24 2 23 0 24-1 20q-4 0-17 0t-16-1l-14-2t-14-3-11-5-9-8-7-11-5-16-1-20z m67 323l154 0 100-232 109 232 143 0-189-359 0-190-141 0 0 190-43 89 0 91q0 55-21 87t-86 40z m26-52q64-9 86-40t21-87l0-91z" horiz-adv-x="1395" />
<glyph glyph-name="facebook" unicode="&#xe87e;" d="m0 313l0 191 154 0 0 96q0 104 68 177t163 73l153 0 0-191-153 0q-15 0-27-16t-12-41l0-98 192 0 0-191-192 0 0-463-192 0 0 463-154 0z" horiz-adv-x="538" />
<glyph glyph-name="github" unicode="&#xe87f;" d="m0 3q0-63 62-108t150-45 151 45 62 108q0 64-62 109t-151 45q-1 0-3 0t-3-1q-24 22-24 48t24 53q71 4 120 55t49 121q0 28-7 50 28 5 44 14l0 115q-48-32-109-32l-7 0q-46 31-101 31-75 0-128-52t-53-126q0-47 24-87t64-64q-28-36-28-74 0-36 26-75-46-21-73-55t-27-75z m121 432q0 33 22 57t50 23q30 0 51-23t21-57-21-56-51-24q-29 0-50 24t-22 56z m3-432q0 27 26 46t62 18 63-18 26-46q0-26-26-45t-63-19-62 19-26 45z m331 766q0 34 24 58t57 23 58-23 24-58-24-58-58-24-57 24-24 58z m19-647l0 479 134 0 0-479-134 0z m181 377l55 0 0-285q4-30 20-51t34-32 38-16 30-7l20 0q27 0 48 8 23 8 30 16l7 9 2 99q-42-13-65-13-5 0-9 1-23 3-27 16l-4 13q0 3-1 4l0 238 91 0 0 102-91 0 0 93-123 0 0-93-55 0 0-102z" horiz-adv-x="939" />
<glyph glyph-name="github-circled" unicode="&#xe880;" d="m0 351q0 102 40 194 79 186 265 265 92 40 194 40t194-40q184-78 265-265 40-95 40-194t-40-194q-81-188-265-267-92-40-194-40t-194 40q-186 80-265 267-40 92-40 194z m78 0q0-141 84-252 83-109 217-155l0 80q0 60 40 87-20 1-47 7-51 9-87 32-91 55-91 199 0 75 50 128-23 59 5 128l20 0q10 0 25-5 39-12 87-44 61 16 120 16t121-16q39 26 73 40 32 12 46 10l12-1q27-69 5-128 50-53 50-128 0-112-55-169-30-32-79-50-41-15-91-19 41-29 41-87l0-80q129 46 213 157 82 110 82 250 0 85-33 164-32 76-90 134-56 56-134 89-80 34-163 34-82 0-164-34-75-32-134-89-56-58-90-134-33-79-33-164z" horiz-adv-x="998" />
<glyph glyph-name="googleplay" unicode="&#xe881;" d="m0-146l0 992 501-496z m0 0l501 496 134-133-202-117-433-250 0 4z m0 992l0 4 433-250 202-117-134-133z m501-496l134 133 231-133-231-133z" horiz-adv-x="866" />
<glyph glyph-name="itunes" unicode="&#xe882;" d="m0 350q0 136 67 251t182 182 251 67 251-67 182-182 67-251-67-251-182-182-251-67-251 67-182 182-67 251z m100 0q0-166 117-283t283-117 283 117 117 283-117 283-283 117-283-117-117-283z m183-176q0-31 22-52t52-22q33 0 57 24t24 57l0 269 200 37 0-208q-15 5-28 5-33 0-57-24t-24-57q0-31 21-52t52-22 56 23 25 54l0 394-290-50 0-300q-15 5-28 5-34 0-58-24t-24-57z" horiz-adv-x="1000" />
<glyph glyph-name="plurk" unicode="&#xe883;" d="m0-150l0 1000 764 0 0-817-571 3 0-186-193 0z m191 359l399 0 0 450-399 0 0-450z" horiz-adv-x="764" />
<glyph glyph-name="songkick" unicode="&#xe884;" d="m0 283l0 134t3 59 7 62 14 53 23 55 36 47 50 47q146 110 356 110l16 0 0-777 124 0 0 208q7-11 39-63t51-80q29-40 64-53t91-13l36 0 0 118q-45 0-63 7t-42 41q-14 18-37 57t-26 43l171 238-148 0-136-189 0 453q135-22 238-100 29-22 51-47t35-47 24-55 14-53 7-62 2-59l0-134t-2-59-7-61-14-53-24-56-35-46-51-48q-146-110-367-110t-367 110q-29 22-50 48t-36 46-23 56-14 53-7 61-3 59z m81-149q66-67 192-67 80 0 138 41t57 118q0 51-18 85t-45 45-58 20-59 9-45 11-18 30q0 47 70 46 57 0 87-29l78 78q-60 60-170 60-78 0-131-41t-54-118q0-51 21-83t51-45 63-17 59-9 37-14q10-11 10-30 0-46-72-46-77 0-113 36z" horiz-adv-x="1000" />
<glyph glyph-name="lastfm" unicode="&#xe885;" d="m0 350q0 164 116 280t280 116q124 0 220-63t146-181q15-36 129-300 21-48 38-73t49-45 79-22l7 0q67 0 111 36 46 38 47 96 0 27-8 45t-29 32-41 22-59 20q-125 41-180 90t-55 135q0 91 58 146t156 54q127 0 191-115l-84-43q-45 62-112 62-46 0-76-28t-31-73q0-13 2-24t9-21 12-16 17-14 20-12 25-10 27-10 31-10 33-10q108-36 155-84t46-140q0-100-76-166-75-65-186-65l-3 0q-100 0-161 47t-103 140l-14 33-127 288q-33 77-104 124t-159 47q-119 0-203-84t-85-204 85-203 203-85q82 0 150 43t105 112l51-118q-55-68-135-107t-171-38q-164 0-280 116t-116 280z" horiz-adv-x="1329" />
<glyph glyph-name="gmail" unicode="&#xe886;" d="m0-97l0 897 185 0 9-8 825 0 9 8 174 0 0-900-171 0 0 7-855 0 0-4-176 0z m176 132l0-80 855 0 0 74-345 259-79-65-86 70z m0 60l307 229-307 252 0-481z m83 641l348-298 347 298-695 0z m465-417l307-230 0 484z" horiz-adv-x="1202" />
<glyph glyph-name="pinboard" unicode="&#xe887;" d="m0 527l316 323 0-123 301-277 187 46-195-208 391-438-444 392-188-192 30 169-255 316z" horiz-adv-x="1000" />
<glyph glyph-name="openid" unicode="&#xe888;" d="m0 203q-1 63 25 117t67 89 92 63 101 43 92 25 68 13l26 3 0-123q-57-4-104-19t-78-37-53-45-35-48-19-43-8-31l-2-12q-3-15-3-30 0-22 7-42 12-34 38-58t59-44 68-34 64-21 47-13l19-3 0-103q-97 10-175 35t-127 56-83 68-51 71-24 62-10 44z m510-353l0 902 142 98 0-922z m176 591l5 0q38-1 77-15 42-16 64-31l21-16-83-34 313-78 0 245-107-61q-40 43-112 69t-126 31l-52 5 0-115z" horiz-adv-x="1083" />
<glyph glyph-name="quora" unicode="&#xe889;" d="m0 399q0 122 60 226t161 165 223 60q184 0 315-132t130-319q0-119-57-220t-154-163q1-2 4-6t11-17 21-22 33-21 45-17l0-76q-36-7-67-7-50 0-85 18-56 29-91 94-48-13-105-13-120 0-222 61t-162 164-60 225z m221-59q0-116 67-198t160-83q26 0 52 8-2 3-5 9t-15 18-23 24-31 19-37 10l0 88q10 1 20 1 119 0 203-90 63 81 63 194l0 116q0 116-66 199t-161 82-160-82-67-199l0-116z" horiz-adv-x="889" />
<glyph glyph-name="soundcloud" unicode="&#xe88a;" d="m0 221q0 16 4 44t9 31q6-3 11-32t4-43q0-14-4-42t-11-32q-13 7-13 74z m64 0q0 25 5 74t6 61q0 6 6 6 4 0 6-6 12-129 12-135 0-24-5-71t-7-59q-2-7-6-7-6 0-6 7-1 11-6 59t-5 71z m81 0q0 24 5 74t5 54q0 9 7 9 8 0 8-9 11-113 11-128t-11-136q0-8-8-8-7 0-7 8 0 7-5 59t-5 77z m92 0q0 38 2 81t4 95 3 81q0 10 9 10 10 0 10-10 1-16 6-111t4-146q0-26-5-77t-5-58q0-10-10-10-9 0-9 10-9 132-9 135z m94 0q0 55 3 160t4 128q2 12 12 12t12-12q1-32 5-133t3-155q0-25-3-72t-5-61q-2-12-12-12t-12 12q0 11-3 59t-4 74z m95 0q0 40 1 85t3 100 2 85q2 15 14 15t14-15q1-30 3-85t2-100 1-85q0-2-6-131l0 1q-2-15-14-15t-14 14q-6 129-6 131z m95-1q0 3 6 351 2 18 16 18t16-18q6-348 6-351 0-1-6-127-2-17-16-17t-16 17q-6 126-6 127z m80 213q0 82 1 155-1 10 13 18t32 12 35 5 24 2q97 0 169-72t80-179q28 13 55 13 58 0 100-45t42-111-42-110-100-46l-393 0q-6 0-10 6t-5 13q0 55 0 156t-1 183z" horiz-adv-x="1152" />
<glyph glyph-name="tumblr" unicode="&#xe88b;" d="m0 440l0 142q60 20 101 55 41 33 67 86 26 51 35 127l143 0 0-253 237 0 0-157-237 0 0-256q0-86 9-112 9-24 34-39 34-20 76-20 77 0 151 49l0-157q-63-31-116-43-52-12-112-12-68 0-122 17-55 19-89 50-36 31-52 68-14 34-14 105l0 350-111 0z" horiz-adv-x="616" />
<glyph glyph-name="eventasaurus" unicode="&#xe88c;" d="m0 9l0 678q0 66 43 115t108 48l697 0q70 0 117-37t46-107l0-59q-74 14-111 20-53 7-54 7-10 3-29 10t-34 11-33 3q-62 0-132-47-34-3-95-7t-112-9-96-14l-2 0-1-1-4 0-1-1-1 0q-72-14-87-26-18-15-20-71l0-165-3-18 526-13 80 27q-44-79-70-132l-106-47-406-7q-3-3-10-3t-11-5q4-26 7-39 12-52 112-59 206-13 335-13 38 0 120 20t127 20q65 0 111-29l0-54q0-155-154-155l-723 0q-61 0-97 48t-37 111z m690 546q0 14 10 25t24 10 25-10 10-25-10-24-25-10-24 10-10 24z" horiz-adv-x="1011" />
<glyph glyph-name="wordpress" unicode="&#xe88d;" d="m0 350q0 136 67 251t182 182 251 67 251-67 182-182 67-251-67-251-182-182-251-67-251 67-182 182-67 251z m39 0q0-135 72-247t188-168l-220 603q-40-89-40-188z m75 253l30 0q48 0 123 6 12 1 18-8t1-19-16-11l-53-5 168-499 101 302-72 197q-24 3-48 5-12 1-16 11t2 19 17 8l121-6q49 0 123 6 12 1 18-8t1-19-16-11l-52-5 166-496 46 154q36 117 36 149 0 64-39 128-2 3-12 21t-14 24-9 19-8 23-2 21q0 33 23 58t55 24q1 0 3 0t3-1q-131 121-312 121-119 0-221-56t-165-152z m256-696q62-18 130-18 80 0 153 26l-3 6-142 389z m362 44q105 61 167 168t62 231q0 120-56 221 3-21 3-47 0-63-35-165z" horiz-adv-x="1000" />
<glyph glyph-name="yelp" unicode="&#xe88e;" d="m0 262l0-13q0-43 6-69 5-18 19-26t29-2l204 63q22 7 31 26 5 10 5 20t-5 19q-9 19-32 26l-204 82q-14 3-27-8t-17-30q-8-36-9-88z m87 477q-5 8-5 16 0 9 6 18 12 17 38 27 81 31 171 46l5 0q45 0 49-38 25-313 25-393 0-33-27-40-6-2-12-2-21 0-37 25-148 232-213 341z m69-766l139 167q19 21 38 21 8 0 16-3 25-11 25-45 0-5-1-10l0-222q-2-14-17-22-9-5-18-5-8 0-16 3-36 6-85 26t-73 37q-18 14-18 30 0 11 10 23z m294 338q-6 12-6 23 0 17 15 33l130 179q7 8 20 8 3 0 7-1 17-2 29-18 25-26 53-71t37-73q3-8 3-15 0-9-4-16-8-13-23-16l-209-53q-8-2-16-2-23 0-36 22z m12-125q-9-12-9-24 0-16 13-32l114-191q7-9 24-9l3 0q19 1 33 15 27 24 56 63t41 70q4 11 4 21 0 7-3 13-5 14-19 19l-205 70q-10 4-19 4-21 0-33-19z" horiz-adv-x="741" />
<glyph glyph-name="intensedebate" unicode="&#xe88f;" d="m0 509q174 33 208 71 27 30 45 91 18-23 23-48t1-40l-5-13q-6-13-10-21t-8-13-9-11-10-9-16-11-21-14q-35-27-33-62t30-55q26-16 51 6t52 78q12 25 19 66t19 73 47 59q20 16 46 19t50 1 51 0 60 24 67 64q5 6 14 16t38 29 59 28 74-1 86-45q-48 21-90 21t-67-15-44-33-26-33l-7-15q-15-37-28-61t-24-39-25-22-24-12-32-8-38-10q-43-13-50-54-6-36 22-53 32-18 82 14 37 24 60 50t30 44 28 39 51 37q43 21 82 29t83 8 67 3q197 32 246 114 48 79 49 130 17-58 12-104t-27-80-44-57-41-34l-18-11q-77-40-128-55t-84-21-62-22q-103-55-52-155 21-41 62-44t77 29q6 5 14 14t23 39 15 61q20-56 16-96t-21-64l-15-22q-36-38-60-53t-63-19-90 15q-86 21-119 21t-62-18q-28-16-43-42t-2-49q14-25 34-27t64 21q39 23 66 30t68 8q87 2 139-38 37-24 74-57-40 24-79 31t-66-1-48-18-32-22l-10-10q-45-51-75-72t-53-21-59 15q-10 4-39 17t-42 16l0 110q0 121-92 186-59 40-134 40-76 0-134-39-20 29-51 33l0 75q0 31-21 53t-53 21l-18 0z m127-564l0 162q0 65 19 99 40 71 134 71 69 0 111-43t41-110l0-135-202 0 0-67q0-48 50-48 45 0 50 49l102 0q0-62-41-105-43-43-111-43-94 0-134 71-19 34-19 99z m103 121l100 0 0 56q0 56-50 56t-50-56l0-56z m262-199q11 36 11 71 0 11-3 20 24-4 34-5 62-6 85-46 2-3 5-9t7-23-1-31q-31 24-65 30t-54-1z" horiz-adv-x="1286" />
<glyph glyph-name="eventbrite" unicode="&#xe890;" d="m1-27q3 31 12 66 11 45 72 351t71 349q12 52 24 73t39 29 87 9l241 0q59 0 135-1t116-1q41 0 50-45 10-48-23-92-30-40-81-40l-401 0-50-233 352-3q44 0 54-45t-21-84q-27-33-70-33l-360 0-48-248 432 0q64 0 77-44t-17-87-68-44l-553 0q-30 0-47 17t-22 46-1 60z" horiz-adv-x="851" />
<glyph glyph-name="scribd" unicode="&#xe891;" d="m0 138q0 44 32 76t76 32q44 0 76-32t32-76q0-46-34-78 65-74 163-74 69 0 116 41 47 42 47 106 0 39-25 77-23 38-60 64-34 23-115 57-75 30-122 59-42 27-73 64-30 36-46 74-14 39-14 79 0 101 81 172 82 71 197 71 77 0 155-33 66-28 113-80 37-32 37-80 0-45-32-76t-76-32q-45 0-76 32t-32 76q0 21 10 44-32 16-88 16-69 0-112-31t-43-80q0-43 38-76 40-33 128-71 92-40 141-73 51-34 82-74 33-41 48-85 0-1 1-3t1-3q-75-62-75-158 0-53 28-104-11-13-24-27-87-82-206-82t-208 64-139 194l3 1q-5 15-5 29z m613-75q0-52 36-89t88-36 88 36 36 89q0 51-36 88t-88 36-88-36-36-88z" horiz-adv-x="861" />
<glyph glyph-name="posterous" unicode="&#xe892;" d="m0 835l100 0 8-121 10 0 5 3q79 133 246 133 130 0 213-98t82-254q0-93-27-166t-72-118-101-67-117-23q-69 0-125 29t-87 79l-2 3-11 0-3-7 0-378-113 0 0 761q0 88-6 224z m119-413q0-31 6-55 19-70 74-113t126-43q101 0 162 77t61 204q0 119-61 194t-157 75q-72 0-128-45t-74-118q-9-33-9-53l0-123z" horiz-adv-x="664" />
<glyph glyph-name="stripe" unicode="&#xe893;" d="m1 512q-11 151 126 252 63 47 145 70 78 23 175 11t181-59q-2-40 0-76 6-119-10-153-9 1-52 14-36 11-66 16-31 6-61 8-70 6-99-38 8-44 38-66 30-21 82-37 49-14 69-26 113-70 139-219l0-85q0-81-45-142t-118-93q-105-44-245-38t-239 59q3 41 0 79-3 42-2 81 2 43 12 69 18-3 48-11 53-15 74-19 165-36 177 40 3 22-11 41t-34 29q-28 14-48 22-29 12-37 17-44 23-59 32-57 34-80 68-54 77-60 154z" horiz-adv-x="668" />
<glyph glyph-name="opentable" unicode="&#xe894;" d="m0 384l0 51q0 38 87 65t211 27 211-27 87-65l0-51q-1-38-88-64t-210-27-210 27-88 64z m287 243l0 27q2 19 64 33t149 13 149-13 63-33l1 0 0-27-1 0q-2-20-63-33t-149-14-149 14-64 33z m211-494l0 64q4 56 117 95t271 38 271-38 116-95l0-64q-3-55-116-94t-271-39-271 39-117 94z m228 341l0 42q2 29 76 49t175 20 176-20 75-49l0-42q0-29-73-50t-178-21-177 21-74 50z" horiz-adv-x="1273" />
<glyph glyph-name="cart" unicode="&#xe895;" d="m0 704q0 20 13 33t33 13l235 0q16 0 29-9t16-26l24-98 674 0 7 21q10 32 43 32 9 0 13-2 15-4 24-16t9-27q0-5-2-13l-118-393q-4-15-16-24t-27-9l-559 0q-16 0-28 10t-17 25l-108 438-199 0q-19 0-32 13t-14 32z m372-178l62-248 489 0 2 9 72 239-625 0z m42-484q0 38 28 65t65 27 65-27 27-65-27-65-65-27-65 27-28 65z m65 406l166 0 0-92-146 0z m245-92l1 92 162 0-24-92-139 0z m37-314q0 38 28 65t65 27 65-27 27-65-27-65-65-27-65 27-28 65z" horiz-adv-x="1120" />
<glyph glyph-name="print" unicode="&#xe896;" d="m0-50l0 333 116 129 85 0 0-64-56 0-80-89 0-245 795 0 0 245-80 89-56 0 0 64 85 0 115-129 0-333-924 0z m201 319l0 330 151 151 372 0 0-481-523 0z m60 61l403 0 0 360-252 0 0-151-151 0 0-209z" horiz-adv-x="924" />
<glyph glyph-name="angellist" unicode="&#xe897;" d="m0 136q0 63 28 98 23 31 74 45-16 40-16 59 0 33 35 70 37 35 69 35 17 0 40-9-48 137-69 208-24 81-24 115 0 48 24 75 25 28 67 28 72 0 173-295l17-49q6 15 12 33 100 292 180 292 40 0 63-27 24-27 24-70 0-28-24-113-21-73-66-200 57-14 82-54 27-43 27-133 0-178-106-291-108-113-274-113-66 0-127 24-59 21-107 66-51 48-76 99-26 54-26 107z m65 5q0-25 14-59 13-32 39-67 41-53 97-81 57-28 129-28 129 0 217 97 87 96 87 243 0 46-6 71-5 22-19 34-27 23-106 40-79 18-168 18-22 0-28-6-7-3-7-20 0-41 46-58 50-21 165-21l28 0q16 0 23-11 8-8 11-31-17-17-55-31-36-13-53-26-40-29-64-69-23-39-23-74 0-21 10-51 11-33 11-43l0-6-4-15q-44 3-64 41-17 32-19 82-3-1-12-1l-11 0q1-5 1-12 0-30-23-51t-54-21q-47 0-95 45-48 46-48 90 0 8 3 16 1 7 16 22 25-31 34-43 42-59 76-59 9 0 17 6 6 6 6 10 0 8-12 29-8 15-37 53-28 36-45 50-15 14-22 14-19 0-37-22t-18-55z m90 191q0-13 16-45 14-27 45-68 31-40 56-62 24-20 36-20 7 0 14 7 7 8 7 16 0 12-18 58-21 51-46 92-22 35-39 49-16 15-31 15-11 0-25-15-15-15-15-27z m45 432q0-34 24-107 22-71 66-190 10 6 28 6 1 0 7 0t10-1q4 0 26-2l-69 200q-28 80-44 104-13 21-26 21-9 0-15-8-7-9-7-23z m166-510q9-23 19-50 20 23 40 38-5 1-15 3t-15 2q-20 4-29 7z m105 204l67-12q45 124 69 199 25 81 25 96 0 16-7 25-4 7-15 7-14 0-31-27-19-29-43-101z" horiz-adv-x="716" />
<glyph glyph-name="instagram" unicode="&#xe898;" d="m0-50l0 800q0 41 30 71t70 29l800 0q41 0 71-29t29-71l0-800q0-41-29-71t-71-29l-800 0q-41 0-70 29t-30 71z m200 400q0-124 88-212t212-88 212 88 88 212-88 212-212 88-212-88-88-212z m100 0q0 82 59 141t141 59 141-59 59-141-59-141-141-59-141 59-59 141z" horiz-adv-x="1000" />
<glyph glyph-name="dwolla" unicode="&#xe899;" d="m0 4q0 76 57 112 29 19 54 29 114 49 122 54-21 31-54 68-51 60-60 71-109 132-94 247 7 55 42 91 13 14 42 32 37 21 45 25 5 2 23 9t29 13l47 21 69 30q58 25 86 40 20 11 25-6 0-11-27-25-61-40-64-114-1-29 5-58t13-47 25-46 27-37 35-40 31-36q6-7 29-33t33-37 28-38 26-46 16-49 7-58q0-38-13-68-12-32-28-52t-48-39q-35-21-53-30-23-12-61-27-16-6-35-15t-23-10l-89-39-36-18q-32-16-50-21-85-21-133 24t-48 123z" horiz-adv-x="617" />
<glyph glyph-name="appnet" unicode="&#xe89a;" d="m2 414q9 158 74 265 49 80 96 114t138 49q30 5 57 6t51-4 44-12 39-20 33-25 30-32 27-34 24-39 21-39 20-41q7-14 14-30t15-35 13-31q8 48 57 188t67 145q91 21 145 0 4-2 9-8t7-8q-1-18-6-38t-8-33-13-36-12-31l-160-439q-7-34 19-90t67-93 74-22q10 5 18 21t14 21q18 15 71 16t67-19q16-29 11-62t-31-67-59-57-74-36-74-5q-29 6-54 18t-41 26-34 36-27 39-27 45-26 44q-4-2-6-4-24-58-81-107t-127-75-150-19-145 54q-85 62-131 204t-36 300z m152 12q-13-108 9-211t73-141q28-21 56-30t52-12 49 10 43 21 41 35 35 39 33 46 28 43 24 42q5 9 8 14-38 161-64 223-73 173-202 155-56-8-81-22t-50-49q-41-55-54-163z" horiz-adv-x="1126" />
<glyph glyph-name="statusnet" unicode="&#xe89b;" d="m0 432q0 122 93 210 58 55 134 75t153-2 137-84q44-46 63-107t15-116-24-102q-19-41-3-93t40-89 51-68 26-33l-11 9q-10 10-21 20t-31 26-38 27-43 25-45 18-44 8-43-7q-47-19-103-20t-117 22-103 69q-86 91-86 212z m132 20q-9-69 34-125t111-64 124 33 64 112-33 124-111 64-124-33-65-111z m478 294q21 59 74 87t113 9q58-18 87-72t8-116q-24-72-114-104-31-11-55-34t-35-38-23-40q22 94-24 159-55 80-31 149z m38-495q2 92 63 155t152 63q89 0 152-62t63-156q0-110-110-195-38-29-62-71t-30-68-13-67q-4 40-10 67t-30 69-65 74q-111 83-110 191z m38 472q-11-27 1-55t38-38 54 0 38 38q11 28 0 55t-38 38-54 0-39-38z m67-515q18-45 65-65 46-19 92 0t65 66 0 91-65 66q-46 19-92 0t-65-65q-19-47 0-93z" horiz-adv-x="1078" />
<glyph glyph-name="acrobat" unicode="&#xe89c;" d="m0-108q0 51 61 106t123 89l15-22q-44-32-90-83t-59-89q87 27 265 379 65 131 103 261-33 107-33 202 0 115 47 115 23 0 34-2t21-13 9-34q0-15-3-28l-27 1q-2 26-17 41-12-20-12-69 0-38 9-94 3 18 9 54t9 53l26-3q-2-152-14-218 36-107 87-174t142-119q68 7 116 7 178 0 178-70 0-11-5-24l-3 1q-5-42-67-42-104 0-240 72-220-22-389-82-147-257-235-257-7 0-14 2t-12 4-14 7-12 7q-8 8-8 22z m318 255q134 54 298 85-103 73-164 209-36-121-134-294z m486 50q90-35 142-35 15 0 22 3 0 32-145 32l-19 0z" horiz-adv-x="999" />
<glyph glyph-name="drupal" unicode="&#xe89d;" d="m0 282q0 70 21 133t49 103 64 75 57 48 38 23q10 5 30 15t30 16 29 17 34 25q42 34 50 113 73-88 106-110 25-17 74-39t73-37q19-11 36-23t54-49 63-76 46-105 21-137q0-186-127-305t-307-119q-116 0-216 55t-163 156-62 221z m190-151q-2-63 42-93 31-21 94-21 41 0 98 30t105 58 70 28q23-1 78-56t70-56q20-1 34 9t31 35q33 49 33 117 0 29-15 55t-47 25q-22 0-92-47t-94-48q-22 0-61 28t-88 55-99 28q-65-1-111-45t-48-102z m205-180q-12-10 0-20 46-42 165-31 23 2 48 11t37 18 16 12 4 16q-3 12-14 3-41-32-124-32-75 0-110 28-3 2-8 2t-14-7z m90 52q7-8 28 11 2 1 8 6t8 7 8 5 10 4 12 2 15 1q16 0 26-4t13-8 7-13q5-10 8-11t7 0q12 7 7 20-9 26-22 34-12 9-43 9-26 0-41-6-17-7-44-32-15-12-7-25z" horiz-adv-x="875" />
<glyph glyph-name="buffer" unicode="&#xe89e;" d="m0 88q11 15 32 26t49 20 40 15q19 0 34-4t33-15 25-13q47-21 260-119 19-4 36 0t39 18 24 14q20 9 77 35t87 39q4 2 42 21t60 24q13 2 28-1t23-7 23-13 18-11 16-6 18-8 11-11q3-4 4-14-10-13-31-24t-51-22-40-16q-43-20-128-62t-129-61q-7-3-21-12t-23-13-26-11-27-7-30 2l-264 123q-6 3-32 14t-51 22-54 24-46 24-22 16q-4 4-4 13z m0 268q11 15 32 25t50 20 41 15q19 0 34-4t35-15 25-14q42-19 127-58t127-59q19-5 37 0t39 17 25 14q68 32 160 72 11 5 32 17t38 19 36 11q16 3 32-1t37-17 23-13q5-3 16-6t18-8 11-11q3-5 4-14-10-14-31-25t-53-23-41-16q-48-23-135-65t-123-59q-7-3-26-14t-29-15-32-10-36 0q-214 101-260 122-6 3-44 19t-69 30-62 30-34 22q-4 4-4 14z m0 267q10 15 32 27t52 22 41 16l348 162q30 0 54-7t56-26 40-22q39-18 117-54t117-55q4-2 37-15t54-24 27-20q3-4 4-13-9-13-26-22t-43-19-35-14q-47-22-140-66t-139-67q-6-3-20-11t-23-12-25-11-27-6-28 1q-245 114-256 119-4 2-63 28t-102 46-48 30q-4 4-4 13z" horiz-adv-x="979" />
<glyph glyph-name="pocket" unicode="&#xe89f;" d="m2 520q-7 215 12 270 4 9 9 16t14 12 14 10 17 10 17 8q136 0 386 2t329 2l94 0t55 0 56-3 45-6 33-10q16-9 27-24t16-29 8-40 2-42-1-50 0-50q0-207-23-327t-96-213q-70-88-165-140t-193-62-200 11-186 73-151 134-96 181q-15 52-23 267z m232 2q-26-28 15-89t104-124q2-2 39-40t54-52 47-35 57-29q11-3 22-3t20 1 19 7 16 7 16 12 12 10 12 11l3 3q9 9 60 56t86 81 68 79 35 75q-15 40-38 56t-51 9-56-26-59-48-56-56-49-51-37-33q-27 16-73 60t-82 82-73 64-55 14q-25-15-56-41z" horiz-adv-x="1136" />
<glyph glyph-name="bitbucket" unicode="&#xe8a0;" d="m0 706q0 60 127 102t306 42q180 0 307-42t126-102q0-12-72-440-9-46-111-89t-250-43-250 43-110 89q-73 414-73 440z m107-581l0 4q0 17 15 17 6 0 12-5 47-37 122-58t126-23l51-3q8 0 22 1t52 5 75 12 78 25 73 41l11 5q16 0 16-17 0-2-1-4-22-121-30-161-11-49-96-82t-200-32-200 32-95 82q-19 95-31 161z m49 596q0-24 82-41t195-18q115 0 197 17t81 41q0 25-81 43t-197 17-196-17-81-42z m139-353q0-57 41-97t97-41 98 41 40 97-40 98-98 40-97-40-41-98z m69 0q0-28 20-48t49-21 49 21 20 48-20 49-49 20-49-20-20-49z" horiz-adv-x="866" />
<glyph glyph-name="lego" unicode="&#xe8a1;" d="m0 141l24 0q-7 14-7 34 0 65 46 186t87 183q32 49 84 49 45 0 45-34 0-52-72-199l82 0q20 62 53 126 34 68 73 91t116 23q29 0 57-14t27-40-13-42-37-22-44-9-46-2l-9 0q-15-22-28-58 18 3 37 3 64 0 64-38 0-9-3-18l0 0q-16-59-88-59-23 0-50 5-16-48-21-73 52 10 77 10t43-11 18-36q0-34-23-57t-54-31-64-8q-65 0-96 41l0 0q-20 24-20 62 0 23 3 45 8 50 28 112l-82 0q-9-19-26-55t-25-55l-1 0-7-14q22 2 34 2 59 0 59-40 0-51-39-73t-93-23q-65 0-85 39l-24 0z m538 78q0 38 16 95t33 99q19 45 36 74t43 57 61 41 80 13q50 0 87-19t37-65q0-38-21-68t-57-31q-52 0-52 33 0 6 4 18t3 18q0 13-22 13-17 0-32-14t-29-43-18-41-15-39l0 0q-32-84-32-119 0-29 28-29 25 0 44 25t26 52q-42 2-42 35 0 37 28 54t66 17q52 0 65-35l0 0q4-11 4-26 0-50-28-106t-69-87l0 0q-53-41-120-41-68 0-100 41l0 0q-24 29-24 78z m329-78l42 0q-18 26-18 66 0 79 49 204 19 47 33 74t37 56 57 41 78 13q120 0 120-115 0-50-22-120l0 0q-15-51-41-110l0 0q-37-77-73-109l0 0q-46-41-119-41-72 0-101 41l-42 0z m144 109l3 0q-6-35 22-35 23 0 43 38l-2 0q17 36 45 116t28 102q0 24-21 24-20 0-33-16-18-26-52-119l0 0q-25-67-33-110z" horiz-adv-x="1265" />
<glyph glyph-name="login" unicode="&#xe8a2;" d="m0 350q0 136 67 251t182 182 251 67 251-67 182-182 67-251-67-251-182-182-251-67-251 67-182 182-67 251z m208-319q0-26 26-26l176 0q28 0 28 26l0 48q0 26-28 26l-29 0 0 460 29 0q28 0 28 26l0 48q0 26-28 26l-176 0q-26 0-26-26l0-48q0-26 26-26l31 0 0-460-31 0q-26 0-26-26l0-48z m277-4q0-24 24-24l59 0q22 0 22 24l0 257q0 103 79 103 42 0 42-51l0-309q0-24 22-24l61 0q21 0 21 24l0 333q0 122-110 122-67 0-122-64l-7 36q-4 22-24 22l-43 0q-24 0-24-25l0-424z" horiz-adv-x="1000" />
<glyph glyph-name="stackoverflow" unicode="&#xe8a3;" d="m0-150l0 417 76-1-3-335 501 0 0 334 79 0 0-415-653 0z m123 219l392 0 0-83-392 0 0 83z m1 65l8 85 393-38-8-85z m21 173l23 82 380-107-24-82z m71 201l44 73 338-204-45-73z m167 205l69 50 230-321-70-50z m252 123l84 14 65-389-84-14z" horiz-adv-x="784" />
<glyph glyph-name="hackernews" unicode="&#xe8a4;" d="m0 850l161 0 197-301q49-75 102-170 48 85 109 177l194 294 154 0-399-576 0-424-133 0 0 424z" horiz-adv-x="917" />
<glyph glyph-name="lkdto" unicode="&#xe8a5;" d="m0 335l0 34q0 113 84 197t215 84q136 0 247-112 21-20 54-62l96-126q39-52 52-65 74-74 147-74 59 0 96 40 33 33 38 85 1 5 1 14 0 22-6 41-9 31-33 57 0 1-1 1-38 40-95 40-78 0-147-74l-85 111 0 0q-6 8-10 13 55 60 113 86t134 25q124 0 214-84l1 0 1-1q83-83 83-215 0-30-5-63-16-89-79-153-61-62-150-79-33-5-62-5-140 0-248 109-23 23-56 67l-96 124q-39 52-52 65-74 74-149 74-22 0-40-6-29-8-55-34-29-32-36-71-3-14-3-28 0-57 37-97l2-2q39-40 97-40 79 0 147 75l84-110 9-12q-57-61-115-87t-130-26q-131 0-216 83l0 1q-63 63-78 153-5 25-5 47z" horiz-adv-x="1199" />
<glyph glyph-name="facebook-1" unicode="&#xe8a6;" d="m124-150v469h-124v169h124v145c0 113 73 217 242 217 69 0 119-7 119-7l-4-157s-51 0-108 0c-60 0-70-28-70-74v-124h183l-8-169h-175v-469h-179" horiz-adv-x="486" />
<glyph glyph-name="facebook-rect" unicode="&#xe8a7;" d="m183 850c-102 0-183-81-183-183l0-634c0-102 81-183 183-183l344 0 0 391-104 0 0 141 104 0 0 120c0 94 61 181 201 181 57 0 100-5 100-5l-4-132s-43 1-90 1c-50 0-58-24-58-62l0-103 152 0-6-141-146 0 0-391 141 0c102 0 183 81 183 183l0 634c0 102-81 183-183 183l-634 0z" horiz-adv-x="1000" />
<glyph glyph-name="twitter-1" unicode="&#xe8a8;" d="m749-25c0-34-13-64-37-88-25-25-54-37-89-37l-248 0c-103 0-192 36-265 110-73 73-110 161-110 264l0 501c0 35 12 65 37 89 24 24 54 36 89 36 34 0 64-12 88-37 25-24 37-54 37-88l0-181 353 0c32 0 60-12 83-35 22-22 34-49 34-81 0-32-12-59-34-82-23-23-51-34-82-34l-354 0 0-88c0-34 12-64 36-88 24-24 54-36 88-36l248 0c35 0 64-12 89-37 24-24 37-54 37-88" horiz-adv-x="749" />
<glyph glyph-name="twitter-bird" unicode="&#xe8a9;" d="m1231 732q-51-77-126-131 1-14 1-32 0-102-30-203-29-102-90-195-61-92-145-164-84-72-201-114-118-43-253-43-210 0-387 113 31-3 60-3 176 0 314 108-82 2-147 51-64 49-89 125 24-5 48-5 34 0 66 9-87 17-145 87-57 69-57 160l0 4q53-30 114-32-52 34-82 90-30 55-30 120 0 68 34 127 95-117 230-186 135-70 290-78-6 28-6 58 0 104 74 178 74 74 178 74 110 0 185-80 85 17 160 62-29-91-111-140 76 9 145 39z" horiz-adv-x="1231" />
<glyph glyph-name="vimeo-1" unicode="&#xe8aa;" d="m1158 619q-8-169-236-463-236-306-400-306-101 0-171 187l-94 343q-52 187-112 187-13 0-90-55l-55 70q86 76 169 151 114 99 171 104 135 13 166-185 34-212 47-264 39-177 86-177 36 0 109 114 73 115 78 174 10 99-78 99-42 0-86-18 86 278 327 270 180-5 169-231z" horiz-adv-x="1158.8" />
<glyph glyph-name="vimeo-rect" unicode="&#xe8ab;" d="m193 850c-107 0-193-86-193-193l0-614c0-107 86-193 193-193l614 0c107 0 193 86 193 193l0 614c0 107-86 193-193 193l-614 0z m517-197c3 0 6 0 9 0 74-2 108-50 104-143-3-69-52-164-146-285-97-126-179-189-247-189-41 0-77 38-106 115l-57 212c-22 77-45 115-69 115-6 0-24-11-56-34l-34 44c35 31 70 62 104 93 47 40 83 62 106 64 56 5 90-33 103-114 14-88 23-142 29-163 16-73 33-109 52-109 15 0 38 23 68 70 30 47 46 83 48 107 4 41-12 61-48 61-17 0-35-3-53-11 34 111 98 167 193 167z" horiz-adv-x="1000" />
<glyph glyph-name="tumblr-1" unicode="&#xe8ac;" d="m346 850v-253h237v-157h-237v-256c0-58 3-95 9-112 6-16 17-29 34-39 22-13 48-20 76-20 51 0 101 16 151 49v-157c-43-21-81-35-116-43-35-8-72-12-112-12-46 0-86 6-122 17-35 12-65 28-89 50-25 21-42 44-52 68-10 24-14 59-14 105v350h-111v142c39 13 73 31 101 55 28 24 50 52 67 86 17 33 29 75 35 127h143" horiz-adv-x="616.1" />
<glyph glyph-name="tumblr-rect" unicode="&#xe8ad;" d="m193 850c-107 0-193-86-193-193l0-614c0-107 86-193 193-193l614 0c107 0 193 86 193 193l0 614c0 107-86 193-193 193l-614 0z m242-141l99 0 0-177 166 0 0-109-166 0 0-179c0-40 2-66 7-78 4-11 12-20 23-27 16-9 33-14 53-14 36 0 71 12 106 35l0-110c-30-14-57-24-81-30-24-6-51-8-79-8-31 0-60 4-84 12-25 8-45 19-63 34-17 15-29 31-36 48-6 16-10 41-10 73l0 244-77 0 0 99c28 9 51 21 71 38 19 17 35 36 47 60 11 23 20 53 24 89z" horiz-adv-x="1000" />
<glyph glyph-name="googleplus-rect" unicode="&#xe8ae;" d="m92 850c-51 0-92-26-92-92l0-79c4 3 8 7 12 11 83 68 173 80 250 81l307 0-82-66-89 0c36-31 89-86 89-184 0-108-57-159-118-207-19-19-41-40-41-72 0-32 22-49 38-63l52-40c64-54 148-117 148-217 0-27-3-52-12-72l354 0c51 0 92 28 92 79l0 580-184 0 0-185-79 0 0 185-184 0 0 78 184 0 0 184 79 0 0-184 184 0 0 171c0 66-41 92-92 92l-816 0z m908-263l0-78 1 0 0 78-1 0z m-813 135c-38 0-78-19-102-48-24-31-28-70-28-108 0-98 51-242 176-242 36 0 74 9 98 36 27 31 37 72 37 93 0 106-60 269-181 269z m-187-398l0-259c66 53 180 44 235 47-20 27-43 54-43 99 0 25 7 40 14 57-16-1-32-3-46-3-66 0-120 26-160 59z m251-252c-13 0-91-3-152-24-21-8-69-26-99-66l0-53c0-51 41-79 92-79l377 0c2 7 6 12 6 26-1 75-80 115-190 194-12 2-19 2-34 2z" horiz-adv-x="1001" />
<glyph glyph-name="github-text" unicode="&#xe8af;" d="m527 850c-21 0-39-8-54-24-15-16-22-35-22-58 0-22 7-41 22-57 15-16 33-24 54-24 20 0 38 8 53 24 15 16 22 35 22 57 0 23-7 42-22 58-15 16-33 24-53 24z m164-156c2-13 3-29 3-49l0-43-53 0 0-106c15 2 27 3 37 3l16-1 0-2-1 0 0-196c0-61 8-106 23-134 20-38 57-57 110-57 38 0 71 7 98 22l0 109c-18-12-39-19-61-19-33 0-49 25-49 74l0 203 47 0c9 0 19 0 28-1 10-1 17-1 21-1l0 106-96 0 0 45c0 17 2 33 4 47l-127 0 0 0z m-501-87c-49 0-92-16-128-49-37-35-55-79-55-131 0-35 10-68 30-98 18-29 39-47 63-55l0-2c-24-10-35-36-35-77 0-31 12-54 37-70l0-2c-68-23-102-64-102-126 0-53 23-92 68-117 36-19 81-29 136-29 135 0 203 56 203 169 0 71-52 114-157 130-24 4-42 13-54 27-10 9-14 19-14 28 0 27 14 43 43 47 45 7 81 27 109 62 28 34 42 75 42 122 0 14-3 30-9 47 19 4 34 8 44 12l0 112c-46-17-86-26-121-26-31 18-64 26-100 26l0 0z m275-5c1-13 2-37 2-71l0-340c0-35-1-60-2-74l123 0c-1 16-2 43-2 80l0 336c0 32 1 55 2 69l-123 0z m-270-95c22 0 39-9 51-25 10-16 15-34 15-55 0-51-22-77-66-77-46 0-69 26-69 76 0 54 23 81 69 81z m7-445c62 0 92-19 92-56 0-39-28-59-84-59-64 0-96 19-96 57 0 39 29 58 88 58l0 0z" horiz-adv-x="924" />
<glyph glyph-name="github-1" unicode="&#xe8b0;" d="m1079 851c-33 1-110-11-239-97-70 18-145 26-219 26-83 0-166-10-243-31-185 126-267 100-267 100-53-133-20-232-10-256-63-68-101-154-101-260 0-80 9-151 31-214 2-4 1-3 3-8 5-12 11-25 17-37 2-4 4-8 4-8 62-116 185-191 404-215l331 0c233 23 345 98 397 216l3 7c5 12 9 24 21 66 12 41 17 113 17 193 0 115-43 207-113 276 12 40 28 128-17 240 0 0-6 2-19 2z m-261-421c54 0 100-9 135-46l0 0c43-45 69-100 69-159 0-277-178-285-398-285-219 0-397 39-397 285 0 58 25 113 68 158 71 76 192 36 329 36 71 0 137 11 194 11z m-408-82c-46 0-83-61-83-137 0-77 37-138 83-138 45 0 82 61 82 138 0 76-37 137-82 137z m443 0c-45 0-82-61-82-137 0-77 37-138 82-138 46 0 83 61 83 138 0 76-37 137-83 137z" horiz-adv-x="1228" />
<glyph glyph-name="skype-1" unicode="&#xe8b1;" d="m958 278c4 23 6 47 6 72 0 256-208 464-464 464-25 0-49-2-72-6-43 27-94 42-148 42-154 0-280-125-280-280 0-54 15-105 42-148-4-23-6-47-6-72 0-256 208-464 464-464 25 0 49 2 72 6 43-27 94-42 148-42 155 0 280 125 280 280 0 54-15 105-42 148z m-238-139c-19-28-48-50-86-66-38-16-82-24-134-24-61 0-113 11-153 33-29 15-52 36-70 62-18 27-27 52-27 77 0 15 6 28 17 38 11 11 25 16 42 16 14 0 25-4 35-12 10-9 18-21 24-36 8-19 17-34 26-46 9-12 21-22 38-30 16-8 38-12 65-12 37 0 67 8 90 24 23 16 34 35 34 59 0 19-6 34-18 45-13 12-29 21-48 27-20 6-47 13-80 20-45 10-83 21-113 34-31 14-55 31-73 54-18 23-27 52-27 85 0 33 10 61 29 86 19 25 46 45 82 58 35 13 77 20 126 20 38 0 71-4 99-13 29-9 52-21 71-36 18-14 32-30 41-46 8-17 13-33 13-48 0-15-6-28-17-39-11-12-25-18-41-18-15 0-27 4-35 11-7 7-16 18-24 33-12 22-25 39-41 51-15 12-40 18-75 18-32 0-58-7-78-20-19-13-29-28-29-46 0-11 4-21 10-29 7-8 16-15 27-21 12-6 24-10 36-14 12-3 32-8 60-15 36-7 67-16 96-25 29-9 53-21 73-34 20-13 36-30 48-51 11-20 17-45 17-74 0-36-10-68-30-96z" horiz-adv-x="1000" />
<glyph glyph-name="icq" unicode="&#xe8b2;" d="m355 823c-31 7-57 4-84-10-29-18-46-47-53-86-7-41 0-80 21-120l10-14-34 11c-42 10-82 4-121-17-41-21-66-50-83-91-16-40-15-78 5-113 9-16 21-28 33-37 17-17 38-27 63-31l10-3-21-18c-20-17-31-38-38-59-7-26-4-51 10-75 7-11 14-21 25-28 11-10 25-17 42-18 31-7 64-7 99 4l-25-42-7-19c-15-45-10-84 11-125 10-16 21-30 32-43 17-15 38-25 64-32 42-11 84-10 125 11 40 21 65 55 78 98l1 8c27-30 52-49 80-56 29-9 57-7 82 10 24 14 41 38 50 67 7 31 7 62 0 97 14-9 28-16 45-21 45-14 84-12 124 9 38 21 63 55 76 99 11 42 8 83-13 122l-7 11c-11 17-22 34-39 46-14 9-31 16-47 24 44 21 75 50 89 88 10 31 7 57-7 82l0 3c-17 28-40 46-75 56-21 5-45 5-66 3l-47-10 16 36c14 45 10 88-14 129l-4 7c-22 36-53 57-95 68-44 11-84 7-124-14-39-21-68-54-80-96l0-3-2-10-5 10-14 26c-23 35-51 56-86 66z m359-85c7-14 11-31 11-49l-4-31c-5-16-13-30-21-42l-127-156c-13 10-27 17-41 24l-14 160-1 56 1 14c7 28 27 50 52 64 26 14 54 17 81 7 29-7 50-23 63-47z m-437-28c1 25 11 42 28 52 9 7 21 7 33 2 25-8 46-26 63-61 7-14 14-28 17-45l28-167-21-7-125 137-7 14c-12 26-19 50-16 75z m-76-165l38-15 124-91c-11-14-18-28-22-42l-204-25-14 2c-25 5-42 16-53 37-11 21-11 42-3 64 10 26 28 47 55 59 25 14 51 18 79 11z m134-230l10-28 4-10c-21-18-37-35-54-51l-42-35-11-7c-27-13-50-17-74-14-21 1-38 8-45 21l-4 16 3 12c7 21 25 43 58 58 17 7 31 14 42 17l113 21z m440 229c25 11 49 14 74 11 24-3 41-14 50-31l5-18-2-15c-10-25-31-45-67-60-14-7-29-10-46-13l-174-21-2 10-3 4 5 7 143 119 17 7z m-360-134c17 15 40 25 66 25 26 0 50-10 65-25 20-20 29-41 29-67s-9-49-29-66c-18-18-39-28-65-28-26 0-49 10-66 28-18 17-28 41-28 66s10 47 28 67z m33-205c2-48 7-98 14-153l0-57-2-14c-10-25-26-46-52-58-25-14-52-17-77-10-29 7-50 24-61 47-7 14-13 31-13 48l7 32c3 14 10 28 22 40l118 141c14-7 28-14 44-16z m108 19l59-61 37-45 7-14c13-24 20-47 17-74-3-25-11-43-28-50-10-7-21-7-33-6-26 7-48 28-63 62l-17 47-21 122 24 9 18 10z m64 87l159 14 56 1 14-1c22-7 41-20 53-41 14-15 21-36 21-60l-4-29c-7-28-24-49-48-60-26-14-51-17-79-7-17 4-29 11-38 22l-148 123 9 21 5 17z" horiz-adv-x="981" />
<glyph glyph-name="yandex" unicode="&#xe8b3;" d="m456 306h-68c-107 0-210 64-210 224 0 167 97 235 196 235h82v-459z m107 544h-185c-181 0-334-113-334-333 0-132 74-230 207-278l-248-368c-8-12 0-21 13-21h115c10 0 16 3 19 9l225 362h81v-362c0-4 5-9 11-9h101c9 0 13 4 13 11v976c0 9-7 13-18 13" horiz-adv-x="580.6" />
<glyph glyph-name="yandex-rect" unicode="&#xe8b4;" d="m177 850c-98 0-177-79-177-177l0-646c0-98 79-177 177-177l475 0 348 500-348 500-475 0z m266-183l113 0c7 0 11-2 11-8l0-622c0-4-2-7-8-7l-61 0c-4 0-7 3-7 6l0 230-50 0-137-230c-2-4-6-6-12-6l-71 0c-7 0-12 6-7 14l151 234c-81 31-127 93-127 177 0 140 94 212 205 212z m-3-54c-60 0-119-43-119-150 0-102 63-142 128-142l42 0 0 292-51 0z" horiz-adv-x="1000" />
<glyph glyph-name="vkontakte-rect" unicode="&#xe8b5;" d="m196 850c-108 0-196-88-196-196l0-608c0-108 88-196 196-196l608 0c108 0 196 88 196 196l0 608c0 108-88 196-196 196l-608 0z m112-226l197 0c41 0 73-1 94-4 21-4 41-10 59-20 20-11 35-25 45-43 10-18 15-39 15-63 0-27-7-51-21-72-13-22-32-37-56-47l0-3c34-8 62-22 83-45 21-22 31-52 31-90 0-28-5-52-16-73-10-21-24-39-42-53-21-16-44-28-70-35-25-7-56-10-95-10l-224 0 0 558z m140-102l0-118 17 0c24 0 41 0 51 0 9 1 19 3 30 8 11 5 19 13 23 22 4 9 6 20 6 32 0 9-2 19-7 28-4 10-11 16-21 21-10 4-20 6-33 6-13 1-32 1-57 1l-9 0z m0-214l0-140 7 0c37 0 62 0 76 1 14 0 28 4 43 10 13 6 22 14 28 24 6 11 8 23 8 36 0 18-3 31-10 41-7 10-18 17-32 22-8 3-20 5-35 6-14 0-34 0-59 0l-26 0z" horiz-adv-x="1000" />
<glyph glyph-name="odnoklassniki" unicode="&#xe8b6;" d="m290 850c-143 0-258-116-258-258 0-142 115-258 258-258 142 0 258 116 258 258 0 142-116 258-258 258z m0-151c59 0 107-48 107-107 0-59-48-107-107-107-59 0-107 48-107 107 0 59 48 107 107 107z m-213-374c-26 0-51-12-65-35-23-36-12-82 23-105 47-29 98-50 150-62l-144-144c-30-30-30-77 0-107 15-15 34-22 53-22 20 0 39 7 54 22l142 142 141-142c30-29 78-29 107 0 30 30 30 78 0 107l-144 144c53 12 103 33 150 62 35 23 46 69 24 105-23 35-69 46-105 23-105-66-241-66-347 0-12 8-26 12-39 12z" horiz-adv-x="579" />
<glyph glyph-name="odnoklassniki-rect" unicode="&#xe8b7;" d="m141 850c-78 0-141-63-141-141v-718c0-78 63-141 141-141h718c78 0 141 63 141 141v718c0 78-63 141-141 141h-718z m381-102c114 0 206-92 206-206 0-113-92-206-206-206-113 0-205 93-205 206 0 114 92 206 205 206z m-2-121c-46-1-83-39-83-85 0-47 38-85 85-85 47 0 86 38 86 85 0 47-39 85-86 85 0 0-1 0-2 0z m-168-298c11 0 22-3 32-9 84-53 193-53 277 0 28 18 65 9 83-19 18-28 9-65-19-83-37-23-77-40-119-50l115-115c23-23 23-61 0-85-24-23-62-23-85 0l-114 113-113-113c-11-12-27-18-42-18-16 0-31 6-43 18-23 24-23 62 0 85l115 115c-42 10-82 27-119 50-28 18-37 55-19 83 11 18 30 28 49 28 1 0 1 0 2 0z" horiz-adv-x="1000" />
<glyph glyph-name="friendfeed" unicode="&#xe8b8;" d="m717 850c-47 0-98-8-150-36-58 21-120 39-206 32-193-18-267-116-279-255-40-5-79-16-82-123-3-123 36-143 77-156l2-358c6-43-2-90 94-100l144-3c53-7 90 27 109 103 7-62 34-96 85-97l167 0c38 10 80 13 86 82l3 373 44-3c36 5 71 11 96 70l0 112c-7 46-19 40-32 50 34 8 70 11 82 94l-3 91c2 57-30 89-110 111-36 5-80 13-127 13z m-333-87c23 0 54-4 121-25l2-108c-35 12-65 26-89 23-76 3-83-35-87-75l0-77 193-2c4 102-23 232 146 254 73 10 141 1 192-21l-2-115c-27 22-62 29-100 34-104 14-80-79-85-148l139 0 0-102-139 0 2-460-153 4 0 456-200-4 0-452-153 0 4 452-75 0-2 115 81-5-2 32c3 74-3 202 156 222 20-1 33 1 51 2z" horiz-adv-x="957" />
<glyph glyph-name="friendfeed-rect" unicode="&#xe8b9;" d="m196 850c-108 0-196-88-196-196l0-608c0-108 88-196 196-196l608 0c107 0 195 88 195 196l0 608c0 108-88 196-195 196l-608 0z m478-138c35 0 66-6 93-10 58-15 82-39 81-81l2-67c-9-60-35-63-60-68 9-7 18-3 23-37l0-81c-18-44-44-48-70-52l-33 2-2-273c-4-50-34-53-62-60l-123 0c-37 1-57 26-62 71-14-56-41-80-79-75l-106 2c-70 7-64 42-68 73l-3 262c-29 10-57 25-55 114 2 79 30 87 60 90 8 102 62 174 204 187 62 5 108-8 150-23 38 20 76 26 110 26z m-244-64c-13 0-22-2-37-1-116-15-112-109-114-163l1-23-59 3 2-83 54 0-3-332 113 0 0 332 146 3 0-335 112-3-2 338 102 0 0 74-102 0c4 50-13 119 63 108 27-3 53-9 73-24l1 83c-37 16-87 23-141 16-123-16-103-111-106-186l-142 2 0 56c4 29 9 57 64 55 18 2 40-8 65-17l-1 79c-49 15-72 18-89 18z" horiz-adv-x="999" />
<glyph glyph-name="blogger-1" unicode="&#xe8ba;" d="m550 850l-300-1c-128-18-237-97-246-231-3-13-2-25-2-37-2-59-1-122-1-182 1-96-2-173 0-244 1-209 124-306 348-302 55 1 119 1 192-1 72 0 128-5 177 2 221 31 264 179 273 299l0 137c-6 140-108 178-194 181 9 35 12 82 3 146-10 124-98 221-250 233z m-251-187l245 0c135-18 129-164 0-185l-245 0c-135 18-129 164 0 185z m-56-404l450-2c136-17 136-183 5-203l-450 2c-139 17-137 182-5 203z" horiz-adv-x="991" />
<glyph glyph-name="blogger-rect" unicode="&#xe8bb;" d="m196 850c-108 0-196-88-196-196l0-608c0-108 88-196 196-196l608 0c108 0 196 88 196 196l0 608c0 108-88 196-196 196l-608 0z m338-187c94-8 149-68 155-146 5-40 4-70-2-91 54-2 116-26 120-113l0-86c-5-75-32-168-169-188-31-4-65-1-110-1-45 1-85 1-119 0-139-2-216 59-216 190-1 44 0 93 0 152 0 38-1 78 0 115 1 7 0 15 1 23 6 84 74 133 153 144l187 1z m-156-117c-80-13-84-105 0-116l152 0c80 13 84 105 0 116l-152 0z m-35-253c-82-13-83-117 3-127l279-1c82 12 82 116-3 127l-279 1z" horiz-adv-x="1000" />
<glyph glyph-name="deviantart" unicode="&#xe8bc;" d="m360 557l5-340-206 0c23 98 69 177 203 197l-2 44c-293-38-356-199-360-315l473 1 0 283c143 4 320-2 369-208l-210 2 0 144c-38 11-70 11-106 9l-2-230 469 0c5 230-199 334-520 329l0 84-113 0z" horiz-adv-x="993" />
</font>
</defs>
</svg>
